Sign Up   |   Sign In  
Hundreds of BeaversDune: Part TwoAmerica's Backyard GoldGold Rush: White WaterAbba: How They Won EurovisionTadaima, OkaeriThe SympathizerTrackerModel HouseWhen Calls the HeartKurt Cobain: Moments That Shook MusicThe Coastal Map of BritainThe Great NorthSullivan's CrossingBeacon 23The Batman vs. DraculaThe ChannelThere's Still TomorrowFalloutShogunParishThe Taste of ThingsTrinket BoxTo Die ForFBI

Announcements

02/27

2024

1

Comments

Death and Other Details S01E08 Vanishing 720p DSNP WEB-DL DD+5 1 H 264-playWEB
[RR/NF/CU]
Size: 885MB mkv H264 (HIGH) / EAC3  HD  1280x720

Death and Other Details
File Information
[img]http://lookpic.com/cdn/i2/t/0227202400521438-1.jpg[/img]
[img]http://lookpic.com/cdn/i2/t/0227202400521438-2.jpg[/img]
[img]http://lookpic.com/cdn/i2/t/0227202400521438-3.jpg[/img]

General
Unique ID                                : 269608097493718911435463528280237579960 (0xCAD4A17D803ED089AA7CD80317349EB8)
Complete name                            : Death.and.Other.Details.S01E08.Vanishing.720p.DSNP.WEB-DL.DD+5.1.H.264-playWEB.mkv
Format                                   : Matroska
Format version                           : Version 4
File size                                : 886 MiB
Duration                                 : 44 min 23 s
Overall bit rate mode                    : Variable
Overall bit rate                         : 2 790 kb/s
Frame rate                               : 23.976 FPS
Writing application                      : mkvmerge v82.0 ('I'm The President') 64-bit
Writing library                          : libebml v1.4.5 + libmatroska v1.7.1

Video
ID                                       : 1
Format                                   : AVC
Format/Info                              : Advanced Video Codec
Format profile                           : High@L3.1
Format settings                          : CABAC / 4 Ref Frames
Format settings, CABAC                   : Yes
Format settings, Reference frames        : 4 frames
Codec ID                                 : V_MPEG4/ISO/AVC
Duration                                 : 44 min 23 s
Bit rate mode                            : Variable
Bit rate                                 : 2 529 kb/s
Maximum bit rate                         : 6 375 kb/s
Width                                    : 1 280 pixels
Height                                   : 720 pixels
Display aspect ratio                     : 16:9
Frame rate mode                          : Constant
Frame rate                               : 23.976 (24000/1001) FPS
Color space                              : YUV
Chroma subsampling                       : 4:2:0
Bit depth                                : 8 bits
Scan type                                : Progressive
Bits/(Pixel*Frame)                       : 0.114
Time code of first frame                 : 00:00:00:0000000000
Stream size                              : 803 MiB (91%)
Language                                 : English
Default                                  : Yes
Forced                                   : No
Color range                              : Limited
Color primaries                          : BT.709
Transfer characteristics                 : BT.709
Matrix coefficients                      : BT.709

Audio
ID                                       : 2
Format                                   : E-AC-3
Format/Info                              : Enhanced AC-3
Commercial name                          : Dolby Digital Plus
Codec ID                                 : A_EAC3
Duration                                 : 44 min 23 s
Bit rate mode                            : Constant
Bit rate                                 : 256 kb/s
Channel(s)                               : 6 channels
Channel layout                           : L R C LFE Ls Rs
Sampling rate                            : 48.0 kHz
Frame rate                               : 31.250 FPS (1536 SPF)
Compression mode                         : Lossy
Stream size                              : 81.3 MiB (9%)
Language                                 : English
Service kind                             : Complete Main
Default                                  : Yes
Forced                                   : No

Text #1
ID                                       : 3
Format                                   : UTF-8
Codec ID                                 : S_TEXT/UTF8
Codec ID/Info                            : UTF-8 Plain Text
Duration                                 : 28 min 28 s
Bit rate                                 : 7 b/s
Frame rate                               : 0.018 FPS
Count of elements                        : 30
Stream size                              : 1.56 KiB (0%)
Title                                    : Forced
Language                                 : English
Default                                  : Yes
Forced                                   : Yes

Text #2
ID                                       : 4
Format                                   : UTF-8
Codec ID                                 : S_TEXT/UTF8
Codec ID/Info                            : UTF-8 Plain Text
Duration                                 : 42 min 51 s
Bit rate                                 : 59 b/s
Frame rate                               : 0.210 FPS
Count of elements                        : 541
Stream size                              : 18.6 KiB (0%)
Language                                 : English
Default                                  : No
Forced                                   : No

Text #3
ID                                       : 5
Format                                   : UTF-8
Codec ID                                 : S_TEXT/UTF8
Codec ID/Info                            : UTF-8 Plain Text
Duration                                 : 44 min 11 s
Bit rate                                 : 69 b/s
Frame rate                               : 0.241 FPS
Count of elements                        : 640
Stream size                              : 22.5 KiB (0%)
Title                                    : SDH
Language                                 : English
Default                                  : No
Forced                                   : No

Text #4
ID                                       : 6
Format                                   : UTF-8
Codec ID                                 : S_TEXT/UTF8
Codec ID/Info                            : UTF-8 Plain Text
Duration                                 : 44 min 8 s
Bit rate                                 : 54 b/s
Frame rate                               : 0.185 FPS
Count of elements                        : 489
Stream size                              : 17.7 KiB (0%)
Language                                 : Czech
Default                                  : No
Forced                                   : No

Text #5
ID                                       : 7
Format                                   : UTF-8
Codec ID                                 : S_TEXT/UTF8
Codec ID/Info                            : UTF-8 Plain Text
Duration                                 : 44 min 8 s
Bit rate                                 : 56 b/s
Frame rate                               : 0.187 FPS
Count of elements                        : 496
Stream size                              : 18.1 KiB (0%)
Language                                 : Danish
Default                                  : No
Forced                                   : No

Text #6
ID                                       : 8
Format                                   : UTF-8
Codec ID                                 : S_TEXT/UTF8
Codec ID/Info                            : UTF-8 Plain Text
Duration                                 : 44 min 8 s
Bit rate                                 : 64 b/s
Frame rate                               : 0.193 FPS
Count of elements                        : 512
Stream size                              : 20.7 KiB (0%)
Language                                 : German
Default                                  : No
Forced                                   : No

Text #7
ID                                       : 9
Format                                   : UTF-8
Codec ID                                 : S_TEXT/UTF8
Codec ID/Info                            : UTF-8 Plain Text
Duration                                 : 42 min 50 s
Bit rate                                 : 94 b/s
Frame rate                               : 0.193 FPS
Count of elements                        : 496
Stream size                              : 29.7 KiB (0%)
Language                                 : Greek
Default                                  : No
Forced                                   : No

Text #8
ID                                       : 10
Format                                   : UTF-8
Codec ID                                 : S_TEXT/UTF8
Codec ID/Info                            : UTF-8 Plain Text
Duration                                 : 44 min 8 s
Bit rate                                 : 56 b/s
Frame rate                               : 0.199 FPS
Count of elements                        : 527
Stream size                              : 18.2 KiB (0%)
Title                                    : Latin America
Language                                 : Spanish (Latin America)
Default                                  : No
Forced                                   : No

Text #9
ID                                       : 11
Format                                   : UTF-8
Codec ID                                 : S_TEXT/UTF8
Codec ID/Info                            : UTF-8 Plain Text
Duration                                 : 44 min 8 s
Bit rate                                 : 58 b/s
Frame rate                               : 0.188 FPS
Count of elements                        : 497
Stream size                              : 19.0 KiB (0%)
Language                                 : Spanish (ES)
Default                                  : No
Forced                                   : No

Text #10
ID                                       : 12
Format                                   : UTF-8
Codec ID                                 : S_TEXT/UTF8
Codec ID/Info                            : UTF-8 Plain Text
Duration                                 : 44 min 8 s
Bit rate                                 : 56 b/s
Frame rate                               : 0.177 FPS
Count of elements                        : 469
Stream size                              : 18.1 KiB (0%)
Language                                 : Finnish
Default                                  : No
Forced                                   : No

Text #11
ID                                       : 13
Format                                   : UTF-8
Codec ID                                 : S_TEXT/UTF8
Codec ID/Info                            : UTF-8 Plain Text
Duration                                 : 44 min 8 s
Bit rate                                 : 65 b/s
Frame rate                               : 0.188 FPS
Count of elements                        : 497
Stream size                              : 21.2 KiB (0%)
Language                                 : French (FR)
Default                                  : No
Forced                                   : No

Text #12
ID                                       : 14
Format                                   : UTF-8
Codec ID                                 : S_TEXT/UTF8
Codec ID/Info                            : UTF-8 Plain Text
Duration                                 : 44 min 8 s
Bit rate                                 : 59 b/s
Frame rate                               : 0.187 FPS
Count of elements                        : 496
Stream size                              : 19.2 KiB (0%)
Language                                 : Hungarian
Default                                  : No
Forced                                   : No

Text #13
ID                                       : 15
Format                                   : UTF-8
Codec ID                                 : S_TEXT/UTF8
Codec ID/Info                            : UTF-8 Plain Text
Duration                                 : 44 min 8 s
Bit rate                                 : 63 b/s
Frame rate                               : 0.188 FPS
Count of elements                        : 497
Stream size                              : 20.6 KiB (0%)
Language                                 : Italian
Default                                  : No
Forced                                   : No

Text #14
ID                                       : 16
Format                                   : UTF-8
Codec ID                                 : S_TEXT/UTF8
Codec ID/Info                            : UTF-8 Plain Text
Duration                                 : 44 min 8 s
Bit rate                                 : 50 b/s
Frame rate                               : 0.217 FPS
Count of elements                        : 575
Stream size                              : 16.2 KiB (0%)
Language                                 : Japanese
Default                                  : No
Forced                                   : No

Text #15
ID                                       : 17
Format                                   : UTF-8
Codec ID                                 : S_TEXT/UTF8
Codec ID/Info                            : UTF-8 Plain Text
Duration                                 : 44 min 8 s
Bit rate                                 : 71 b/s
Frame rate                               : 0.202 FPS
Count of elements                        : 535
Stream size                              : 23.1 KiB (0%)
Language                                 : Korean
Default                                  : No
Forced                                   : No

Text #16
ID                                       : 18
Format                                   : UTF-8
Codec ID                                 : S_TEXT/UTF8
Codec ID/Info                            : UTF-8 Plain Text
Duration                                 : 44 min 8 s
Bit rate                                 : 55 b/s
Frame rate                               : 0.185 FPS
Count of elements                        : 491
Stream size                              : 17.8 KiB (0%)
Language                                 : Dutch
Default                                  : No
Forced                                   : No

Text #17
ID                                       : 19
Format                                   : UTF-8
Codec ID                                 : S_TEXT/UTF8
Codec ID/Info                            : UTF-8 Plain Text
Duration                                 : 44 min 8 s
Bit rate                                 : 54 b/s
Frame rate                               : 0.186 FPS
Count of elements                        : 494
Stream size                              : 17.7 KiB (0%)
Language                                 : Norwegian
Default                                  : No
Forced                                   : No

Text #18
ID                                       : 20
Format                                   : UTF-8
Codec ID                                 : S_TEXT/UTF8
Codec ID/Info                            : UTF-8 Plain Text
Duration                                 : 44 min 8 s
Bit rate                                 : 52 b/s
Frame rate                               : 0.187 FPS
Count of elements                        : 495
Stream size                              : 17.1 KiB (0%)
Language                                 : Polish
Default                                  : No
Forced                                   : No

Text #19
ID                                       : 21
Format                                   : UTF-8
Codec ID                                 : S_TEXT/UTF8
Codec ID/Info                            : UTF-8 Plain Text
Duration                                 : 44 min 8 s
Bit rate                                 : 52 b/s
Frame rate                               : 0.187 FPS
Count of elements                        : 495
Stream size                              : 16.9 KiB (0%)
Title                                    : Brazil
Language                                 : Portuguese (BR)
Default                                  : No
Forced                                   : No

Text #20
ID                                       : 22
Format                                   : UTF-8
Codec ID                                 : S_TEXT/UTF8
Codec ID/Info                            : UTF-8 Plain Text
Duration                                 : 44 min 8 s
Bit rate                                 : 61 b/s
Frame rate                               : 0.188 FPS
Count of elements                        : 498
Stream size                              : 19.8 KiB (0%)
Language                                 : Portuguese (PT)
Default                                  : No
Forced                                   : No

Text #21
ID                                       : 23
Format                                   : UTF-8
Codec ID                                 : S_TEXT/UTF8
Codec ID/Info                            : UTF-8 Plain Text
Duration                                 : 44 min 8 s
Bit rate                                 : 57 b/s
Frame rate                               : 0.183 FPS
Count of elements                        : 484
Stream size                              : 18.4 KiB (0%)
Language                                 : Romanian
Default                                  : No
Forced                                   : No

Text #22
ID                                       : 24
Format                                   : UTF-8
Codec ID                                 : S_TEXT/UTF8
Codec ID/Info                            : UTF-8 Plain Text
Duration                                 : 44 min 8 s
Bit rate                                 : 55 b/s
Frame rate                               : 0.188 FPS
Count of elements                        : 497
Stream size                              : 17.8 KiB (0%)
Language                                 : Slovak
Default                                  : No
Forced                                   : No

Text #23
ID                                       : 25
Format                                   : UTF-8
Codec ID                                 : S_TEXT/UTF8
Codec ID/Info                            : UTF-8 Plain Text
Duration                                 : 44 min 8 s
Bit rate                                 : 54 b/s
Frame rate                               : 0.186 FPS
Count of elements                        : 492
Stream size                              : 17.5 KiB (0%)
Language                                 : Swedish
Default                                  : No
Forced                                   : No

Text #24
ID                                       : 26
Format                                   : UTF-8
Codec ID                                 : S_TEXT/UTF8
Codec ID/Info                            : UTF-8 Plain Text
Duration                                 : 44 min 8 s
Bit rate                                 : 56 b/s
Frame rate                               : 0.186 FPS
Count of elements                        : 494
Stream size                              : 18.2 KiB (0%)
Language                                 : Turkish
Default                                  : No
Forced                                   : No

Text #25
ID                                       : 27
Format                                   : UTF-8
Codec ID                                 : S_TEXT/UTF8
Codec ID/Info                            : UTF-8 Plain Text
Duration                                 : 44 min 8 s
Bit rate                                 : 55 b/s
Frame rate                               : 0.188 FPS
Count of elements                        : 497
Stream size                              : 18.0 KiB (0%)
Title                                    : Traditional
Language                                 : Chinese (Traditional)
Default                                  : No
Forced                                   : No

Menu
00:43:15.971                             : en:Credits



Download
File Container: MKV
Video/Audio Codec: H264 (HIGH) EAC3
Video Resolution: 1280x720

1 Response to "[RR/NF/CU] Death and Other Details S01E08 Vanishing 720p DSNP WEB-DL DD+5 1 H 264-playWEB (885MB)"
02/27/24
13:03:42
ReadyPlayerOne

Thank You

Please Login to post a comment.
If you don't have any account, please Register.
  • Subscribe my Feeds
  • Facebook
Encoding Queue:  x264  x265

Latest Episodes

Popular Movies and TV Shows

  • Hundreds of Beavers
  • Dune: Part Two
  • America's Backyard Gold
  • Gold Rush: White Water
  • Abba: How They Won Eurovision
  • Tadaima, Okaeri
  • The Sympathizer
  • Tracker
  • Model House
  • When Calls the Heart
  • Kurt Cobain: Moments That Shook Music
  • The Coastal Map of Britain
  • The Great North
  • Sullivan's Crossing
  • Beacon 23
  • The Batman vs. Dracula
  • The Channel
  • There's Still Tomorrow
  • Fallout
  • Shogun
  • Parish
  • The Taste of Things
  • Trinket Box
  • To Die For
  • FBI

Recent Comments

  • Bud:

    Are you ever going to put up Thursday's episode with Liev Schreiber?

  • alp-engin:

    When will that maintenance be over? Please...

  • mentalityx:

    Rad bloke

  • DownloadHostInspector:

    so far these RMTeam uploads always have a working link. DownloadHostInspector approved!

  • DownloadHostInspector:

    ah yes, this upload has a host that works. clicknupload. DownloadHostInspector approved!

  • DownloadHostInspector: Why are all the download hosts trash? none of them let you download it
  • Qua4ratic:

    clicknupload link plz

  • ppoo:

    Please, can you add "Real Time with Bill Maher S22E11" ??

  • theahtisham:

    Kindly upload Ep. 3 and 4 as well.

Archives