Sign Up   |   Sign In  
Hundreds of BeaversDune: Part TwoAmerica's Backyard GoldGold Rush: White WaterAbba: How They Won EurovisionTadaima, OkaeriThe SympathizerTrackerModel HouseWhen Calls the HeartKurt Cobain: Moments That Shook MusicThe Coastal Map of BritainThe Great NorthSullivan's CrossingBeacon 23The Batman vs. DraculaThe ChannelThere's Still TomorrowFalloutShogunParishThe Taste of ThingsTrinket BoxTo Die ForFBI

Announcements

02/24

2024

No

Comments

Digby Dragon S02E03 Chips Gift 1080p WEB-DL AAC2 0 H 264-NTb
[RR/NF/CU]
Size: 921MB mkv H264 (HIGH) / EAC3  HD  1920x1080

Digby Dragon
File Information
[img]http://lookpic.com/cdn/i2/t/0223202414370575-1.jpg[/img]
[img]http://lookpic.com/cdn/i2/t/0223202414370575-2.jpg[/img]
[img]http://lookpic.com/cdn/i2/t/0223202414370575-3.jpg[/img]

General
Unique ID                                : 205159366518132968425284295158198200402 (0x9A5841B960845869B5F19F1551C86852)
Complete name                            : Digby.Dragon.S02E03.Chips.Gift.1080p.WEB-DL.AAC2.0.H.264-NTb.mkv
Format                                   : Matroska
Format version                           : Version 4
File size                                : 921 MiB
Duration                                 : 21 min 7 s
Overall bit rate                         : 6 097 kb/s
Frame rate                               : 29.970 FPS
Movie name                               : Chips' Gift / Chips' Gift
Description                              : Chips makes a statue of Digby for a gift, but Digby finds the statue ugly and tries to get rid of it. Digby insists on dragging Fizzy along to see the annual 'Sprite Flight' despite her having a bad case of fairy flu.
Encoded date                             : 2024-02-21 19:29:44 UTC
Writing application                      : mkvmerge v68.0.0 ('The Curtain') 64-bit
Writing library                          : libebml v1.4.2 + libmatroska v1.6.4
Cover                                    : Yes
Attachments                              : cover.png
DATE                                     : 2019
EPISODE_ID                               : 3
GENRE                                    : Kids
SEASON                                   : 2
SHOW                                     : Digby Dragon

Video
ID                                       : 1
Format                                   : AVC
Format/Info                              : Advanced Video Codec
Format profile                           : High@L4
Format settings                          : CABAC / 4 Ref Frames
Format settings, CABAC                   : Yes
Format settings, Reference frames        : 4 frames
Codec ID                                 : V_MPEG4/ISO/AVC
Duration                                 : 21 min 7 s
Bit rate                                 : 5 868 kb/s
Width                                    : 1 920 pixels
Height                                   : 1 080 pixels
Display aspect ratio                     : 16:9
Frame rate mode                          : Constant
Frame rate                               : 29.970 (30000/1001) FPS
Color space                              : YUV
Chroma subsampling                       : 4:2:0
Bit depth                                : 8 bits
Scan type                                : Progressive
Bits/(Pixel*Frame)                       : 0.094
Stream size                              : 886 MiB (96%)
Default                                  : Yes
Forced                                   : No
Color range                              : Limited
Color primaries                          : BT.709
Transfer characteristics                 : BT.709
Matrix coefficients                      : BT.709

Audio
ID                                       : 2
Format                                   : E-AC-3
Format/Info                              : Enhanced AC-3
Commercial name                          : Dolby Digital Plus
Codec ID                                 : A_EAC3
Duration                                 : 21 min 7 s
Bit rate mode                            : Constant
Bit rate                                 : 224 kb/s
Channel(s)                               : 2 channels
Channel layout                           : L R
Sampling rate                            : 48.0 kHz
Frame rate                               : 31.250 FPS (1536 SPF)
Compression mode                         : Lossy
Stream size                              : 33.8 MiB (4%)
Language                                 : English
Service kind                             : Complete Main
Default                                  : Yes
Forced                                   : No

Text
ID                                       : 3
Format                                   : UTF-8
Codec ID                                 : S_TEXT/UTF8
Codec ID/Info                            : UTF-8 Plain Text
Duration                                 : 20 min 56 s
Bit rate                                 : 54 b/s
Frame rate                               : 0.353 FPS
Count of elements                        : 444
Stream size                              : 8.32 KiB (0%)
Title                                    : English [CC]
Language                                 : English
Default                                  : Yes
Forced                                   : No



Download
File Container: MKV
Video/Audio Codec: H264 (HIGH) EAC3
Video Resolution: 1920x1080
Please Login to post a comment.
If you don't have any account, please Register.
  • Subscribe my Feeds
  • Facebook
Encoding Queue:  x264  x265

Latest Episodes

Popular Movies and TV Shows

  • Hundreds of Beavers
  • Dune: Part Two
  • America's Backyard Gold
  • Gold Rush: White Water
  • Abba: How They Won Eurovision
  • Tadaima, Okaeri
  • The Sympathizer
  • Tracker
  • Model House
  • When Calls the Heart
  • Kurt Cobain: Moments That Shook Music
  • The Coastal Map of Britain
  • The Great North
  • Sullivan's Crossing
  • Beacon 23
  • The Batman vs. Dracula
  • The Channel
  • There's Still Tomorrow
  • Fallout
  • Shogun
  • Parish
  • The Taste of Things
  • Trinket Box
  • To Die For
  • FBI

Recent Comments

  • Bud:

    Are you ever going to put up Thursday's episode with Liev Schreiber?

  • alp-engin:

    When will that maintenance be over? Please...

  • mentalityx:

    Rad bloke

  • DownloadHostInspector:

    so far these RMTeam uploads always have a working link. DownloadHostInspector approved!

  • DownloadHostInspector:

    ah yes, this upload has a host that works. clicknupload. DownloadHostInspector approved!

  • DownloadHostInspector: Why are all the download hosts trash? none of them let you download it
  • Qua4ratic:

    clicknupload link plz

  • ppoo:

    Please, can you add "Real Time with Bill Maher S22E11" ??

  • theahtisham:

    Kindly upload Ep. 3 and 4 as well.

Archives