Sign Up   |   Sign In  
Dune: Part TwoHundreds of BeaversModel HouseWhen Calls the HeartGrimsburgTrain to the End of the WorldThe SympathizerTrackerThe Great NorthAbba: How They Won EurovisionKurt Cobain: Moments That Shook MusicThe Batman vs. DraculaSullivan's CrossingBeacon 23ShogunThe ChannelThere's Still TomorrowTo Die ForFalloutParishSaturday Night LiveThe Taste of ThingsFantastic Four: Rise of the Silver SurferTrinket BoxFBI

Announcements

02/24

2024

No

Comments

Digby Dragon S02E04 Shrinky Dragon 1080p WEB-DL AAC2 0 H 264-NTb
[RR/NF/CU]
Size: 788MB mkv H264 (HIGH) / EAC3  HD  1920x1080

Digby Dragon
File Information
[img]http://lookpic.com/cdn/i2/t/0223202414371062-1.jpg[/img]
[img]http://lookpic.com/cdn/i2/t/0223202414371062-2.jpg[/img]
[img]http://lookpic.com/cdn/i2/t/0223202414371062-3.jpg[/img]

General
Unique ID                                : 45581330502743081850614682354765636376 (0x224AA51A43E107005F5FE70B3F29A318)
Complete name                            : Digby.Dragon.S02E04.Shrinky.Dragon.1080p.WEB-DL.AAC2.0.H.264-NTb.mkv
Format                                   : Matroska
Format version                           : Version 4
File size                                : 788 MiB
Duration                                 : 21 min 7 s
Overall bit rate                         : 5 216 kb/s
Frame rate                               : 29.970 FPS
Movie name                               : Shrinky Dragon / Shrinky Dragon
Description                              : Digby and Archie get caught up in a magic spell gone awry and end up tiny! Digby accidentally loses Chips' cuddlenut but doesn't want to admit it. Digby instead convinces Fizzy to cast a spell to help Chips sleep without his favorite toy.
Encoded date                             : 2024-02-21 19:26:25 UTC
Writing application                      : mkvmerge v68.0.0 ('The Curtain') 64-bit
Writing library                          : libebml v1.4.2 + libmatroska v1.6.4
Cover                                    : Yes
Attachments                              : cover.png
DATE                                     : 2019
EPISODE_ID                               : 2
GENRE                                    : Kids
SEASON                                   : 2
SHOW                                     : Digby Dragon

Video
ID                                       : 1
Format                                   : AVC
Format/Info                              : Advanced Video Codec
Format profile                           : High@L4
Format settings                          : CABAC / 4 Ref Frames
Format settings, CABAC                   : Yes
Format settings, Reference frames        : 4 frames
Codec ID                                 : V_MPEG4/ISO/AVC
Duration                                 : 21 min 7 s
Bit rate                                 : 4 988 kb/s
Width                                    : 1 920 pixels
Height                                   : 1 080 pixels
Display aspect ratio                     : 16:9
Frame rate mode                          : Constant
Frame rate                               : 29.970 (30000/1001) FPS
Color space                              : YUV
Chroma subsampling                       : 4:2:0
Bit depth                                : 8 bits
Scan type                                : Progressive
Bits/(Pixel*Frame)                       : 0.080
Stream size                              : 753 MiB (96%)
Default                                  : Yes
Forced                                   : No
Color range                              : Limited
Color primaries                          : BT.709
Transfer characteristics                 : BT.709
Matrix coefficients                      : BT.709

Audio
ID                                       : 2
Format                                   : E-AC-3
Format/Info                              : Enhanced AC-3
Commercial name                          : Dolby Digital Plus
Codec ID                                 : A_EAC3
Duration                                 : 21 min 7 s
Bit rate mode                            : Constant
Bit rate                                 : 224 kb/s
Channel(s)                               : 2 channels
Channel layout                           : L R
Sampling rate                            : 48.0 kHz
Frame rate                               : 31.250 FPS (1536 SPF)
Compression mode                         : Lossy
Stream size                              : 33.8 MiB (4%)
Language                                 : English
Service kind                             : Complete Main
Default                                  : Yes
Forced                                   : No

Text
ID                                       : 3
Format                                   : UTF-8
Codec ID                                 : S_TEXT/UTF8
Codec ID/Info                            : UTF-8 Plain Text
Duration                                 : 20 min 38 s
Bit rate                                 : 62 b/s
Frame rate                               : 0.356 FPS
Count of elements                        : 441
Stream size                              : 9.38 KiB (0%)
Title                                    : English [CC]
Language                                 : English
Default                                  : Yes
Forced                                   : No



Download
File Container: MKV
Video/Audio Codec: H264 (HIGH) EAC3
Video Resolution: 1920x1080
Please Login to post a comment.
If you don't have any account, please Register.
  • Subscribe my Feeds
  • Facebook
Encoding Queue:  x264  x265

Latest Episodes

Popular Movies and TV Shows

  • Dune: Part Two
  • Hundreds of Beavers
  • Model House
  • When Calls the Heart
  • Grimsburg
  • Train to the End of the World
  • The Sympathizer
  • Tracker
  • The Great North
  • Abba: How They Won Eurovision
  • Kurt Cobain: Moments That Shook Music
  • The Batman vs. Dracula
  • Sullivan's Crossing
  • Beacon 23
  • Shogun
  • The Channel
  • There's Still Tomorrow
  • To Die For
  • Fallout
  • Parish
  • Saturday Night Live
  • The Taste of Things
  • Fantastic Four: Rise of the Silver Surfer
  • Trinket Box
  • FBI

Recent Comments

  • Bud:

    Are you ever going to put up Thursday's episode with Liev Schreiber?

  • alp-engin:

    When will that maintenance be over? Please...

  • mentalityx:

    Rad bloke

  • DownloadHostInspector:

    so far these RMTeam uploads always have a working link. DownloadHostInspector approved!

  • DownloadHostInspector:

    ah yes, this upload has a host that works. clicknupload. DownloadHostInspector approved!

  • DownloadHostInspector: Why are all the download hosts trash? none of them let you download it
  • Qua4ratic:

    clicknupload link plz

  • ppoo:

    Please, can you add "Real Time with Bill Maher S22E11" ??

  • theahtisham:

    Kindly upload Ep. 3 and 4 as well.

Archives