Sign Up   |   Sign In  
Hundreds of BeaversDune: Part TwoAbba: How They Won EurovisionOpenHouse NYCAmerica's Backyard GoldTsukimichi: Moonlit FantasyThe SympathizerTrackerThe Great NorthModel HouseKurt Cobain: Moments That Shook MusicThe Batman vs. DraculaWhen Calls the HeartSullivan's CrossingBeacon 23The ChannelThere's Still TomorrowTo Die ForFalloutShogunParishThe Taste of ThingsTrinket BoxFantastic Four: Rise of the Silver SurferFBI

Announcements

02/24

2024

No

Comments

Digby Dragon S02E13 Fern Frenzy 1080p WEB-DL AAC2 0 H 264-NTb
[RR/NF/CU]
Size: 837MB mkv H264 (HIGH) / EAC3  HD  1920x1080

Digby Dragon
File Information
[img]http://lookpic.com/cdn/i2/t/0223202414464646-1.jpg[/img]
[img]http://lookpic.com/cdn/i2/t/0223202414464646-2.jpg[/img]
[img]http://lookpic.com/cdn/i2/t/0223202414464646-3.jpg[/img]

General
Unique ID                                : 116791122474913761069243420021657849611 (0x57DD26E98EB2D7A9E97BA9E07AB64F0B)
Complete name                            : Digby.Dragon.S02E13.Fern.Frenzy.1080p.WEB-DL.AAC2.0.H.264-NTb.mkv
Format                                   : Matroska
Format version                           : Version 4
File size                                : 837 MiB
Duration                                 : 21 min 7 s
Overall bit rate                         : 5 543 kb/s
Frame rate                               : 29.970 FPS
Movie name                               : Fern Frenzy / Fern Frenzy
Description                              : Fizzy leaves her precious fern in Digby's care, but he neglects to follow her instructions and the fern takes on a life of its own! Grumpy decides to build a robot to help him with all his chores, but the robot is even more grumpy than Grumpy!
Encoded date                             : 2024-02-21 19:41:43 UTC
Writing application                      : mkvmerge v68.0.0 ('The Curtain') 64-bit
Writing library                          : libebml v1.4.2 + libmatroska v1.6.4
Cover                                    : Yes
Attachments                              : cover.png
DATE                                     : 2019
EPISODE_ID                               : 7
GENRE                                    : Kids
SEASON                                   : 2
SHOW                                     : Digby Dragon

Video
ID                                       : 1
Format                                   : AVC
Format/Info                              : Advanced Video Codec
Format profile                           : High@L4
Format settings                          : CABAC / 4 Ref Frames
Format settings, CABAC                   : Yes
Format settings, Reference frames        : 4 frames
Codec ID                                 : V_MPEG4/ISO/AVC
Duration                                 : 21 min 6 s
Bit rate                                 : 5 315 kb/s
Width                                    : 1 920 pixels
Height                                   : 1 080 pixels
Display aspect ratio                     : 16:9
Frame rate mode                          : Constant
Frame rate                               : 29.970 (30000/1001) FPS
Color space                              : YUV
Chroma subsampling                       : 4:2:0
Bit depth                                : 8 bits
Scan type                                : Progressive
Bits/(Pixel*Frame)                       : 0.086
Stream size                              : 803 MiB (96%)
Default                                  : Yes
Forced                                   : No
Color range                              : Limited
Color primaries                          : BT.709
Transfer characteristics                 : BT.709
Matrix coefficients                      : BT.709

Audio
ID                                       : 2
Format                                   : E-AC-3
Format/Info                              : Enhanced AC-3
Commercial name                          : Dolby Digital Plus
Codec ID                                 : A_EAC3
Duration                                 : 21 min 7 s
Bit rate mode                            : Constant
Bit rate                                 : 224 kb/s
Channel(s)                               : 2 channels
Channel layout                           : L R
Sampling rate                            : 48.0 kHz
Frame rate                               : 31.250 FPS (1536 SPF)
Compression mode                         : Lossy
Stream size                              : 33.8 MiB (4%)
Language                                 : English
Service kind                             : Complete Main
Default                                  : Yes
Forced                                   : No

Text
ID                                       : 3
Format                                   : UTF-8
Codec ID                                 : S_TEXT/UTF8
Codec ID/Info                            : UTF-8 Plain Text
Duration                                 : 20 min 59 s
Bit rate                                 : 73 b/s
Frame rate                               : 0.349 FPS
Count of elements                        : 439
Stream size                              : 11.3 KiB (0%)
Title                                    : English [CC]
Language                                 : English
Default                                  : Yes
Forced                                   : No



Download
File Container: MKV
Video/Audio Codec: H264 (HIGH) EAC3
Video Resolution: 1920x1080
Please Login to post a comment.
If you don't have any account, please Register.
  • Subscribe my Feeds
  • Facebook
Encoding Queue:  x264  x265

Latest Episodes

Popular Movies and TV Shows

  • Hundreds of Beavers
  • Dune: Part Two
  • Abba: How They Won Eurovision
  • OpenHouse NYC
  • America's Backyard Gold
  • Tsukimichi: Moonlit Fantasy
  • The Sympathizer
  • Tracker
  • The Great North
  • Model House
  • Kurt Cobain: Moments That Shook Music
  • The Batman vs. Dracula
  • When Calls the Heart
  • Sullivan's Crossing
  • Beacon 23
  • The Channel
  • There's Still Tomorrow
  • To Die For
  • Fallout
  • Shogun
  • Parish
  • The Taste of Things
  • Trinket Box
  • Fantastic Four: Rise of the Silver Surfer
  • FBI

Recent Comments

  • Bud:

    Are you ever going to put up Thursday's episode with Liev Schreiber?

  • alp-engin:

    When will that maintenance be over? Please...

  • mentalityx:

    Rad bloke

  • DownloadHostInspector:

    so far these RMTeam uploads always have a working link. DownloadHostInspector approved!

  • DownloadHostInspector:

    ah yes, this upload has a host that works. clicknupload. DownloadHostInspector approved!

  • DownloadHostInspector: Why are all the download hosts trash? none of them let you download it
  • Qua4ratic:

    clicknupload link plz

  • ppoo:

    Please, can you add "Real Time with Bill Maher S22E11" ??

  • theahtisham:

    Kindly upload Ep. 3 and 4 as well.

Archives