Sign Up   |   Sign In  

Announcements

Want to support us?
Buy a RapidRAR account from our resellers:
Buy or renew a NitroFlare account via THIS LINK

04/16

2017

1

Comments

Doctor Who 2005 S10E01 1080p AMZN WEBRip DD5 1 x264-NTb
[RR/NF/UL]
Size: 4.5GB mkv H264 (HIGH) / EAC3  HD  1920x1080

Doctor Who
Click on the image to see full size
[RR/NF/UL] Doctor Who 2005 S10E01 1080p AMZN WEBRip DD5 1 x264-NTb (4.5GB) - Snapshot 1
File Information
[URL=http://imagecurl.com/viewer.php?file=29575097216173003042.png][IMG]http://imagecurl.com/images/29575097216173003042_thumb.png[/IMG][/URL]
[URL=http://imagecurl.com/viewer.php?file=02274322062670117481.png][IMG]http://imagecurl.com/images/02274322062670117481_thumb.png[/IMG][/URL]
[URL=http://imagecurl.com/viewer.php?file=43369391545580485955.png][IMG]http://imagecurl.com/images/43369391545580485955_thumb.png[/IMG][/URL]
[URL=http://imagecurl.com/viewer.php?file=55367744862840548375.png][IMG]http://imagecurl.com/images/55367744862840548375_thumb.png[/IMG][/URL]
[URL=http://imagecurl.com/viewer.php?file=12657899860917421985.png][IMG]http://imagecurl.com/images/12657899860917421985_thumb.png[/IMG][/URL]
[URL=http://imagecurl.com/viewer.php?file=22537417117245048190.png][IMG]http://imagecurl.com/images/22537417117245048190_thumb.png[/IMG][/URL]



[mediainfo]
Video
ID                                       : 1
Format                                   : AVC
Format/Info                              : Advanced Video Codec
Format profile                           : [email protected]
Format settings, CABAC                   : Yes
Format settings, ReFrames                : 4 frames
Codec ID                                 : V_MPEG4/ISO/AVC
Duration                                 : 49mn 49s
Bit rate                                 : 12.2 Mbps
Width                                    : 1 920 pixels
Height                                   : 1 080 pixels
Display aspect ratio                     : 16:9
Frame rate mode                          : Constant
Frame rate                               : 25.000 fps
Color space                              : YUV
Chroma subsampling                       : 4:2:0
Bit depth                                : 8 bits
Scan type                                : Progressive
Bits/(Pixel*Frame)                       : 0.234
Stream size                              : 4.23 GiB (95%)
Writing library                          : x264 core 148 r2638 7599210
 Encoding settings                        : cabac=1 / ref=4 / deblock=1:-3:-3 / analyse=0x3:0x133 / me=umh / subme=10 / psy=1 / psy_rd=1.00:0.00 / mixed_ref=1 / me_range=48 / chroma_me=1 / trellis=2 / 8x8dct=1 / cqm=0 / deadz / fast pskip=0 / chroma_qp_offset=-2 / threads=24 / lookahead_threads=4 / sliced_threads=0 / nr=0 / decimate=0 / interlaced=0 / bluray_compat=0 / c / bframes=9 / b_pyramid=0 / b_adapt=2 / b_bias=0 / direct=3 / weightb=1 / open_gop=0 / weightp=2 / keyint=250 / keyint_min=25 / scenecut=40 / intra_refresh=0 / rc=crf / mbtree=0 / crf=17.0 / qcomp=0.60 / qpmin=10 / qpmax=51 / qpstep=4 / ip_ratio=1.40 / pb_ratio=1.30 / aq=3:0.70
Default                                  : Yes
Forced                                   : No

Audio
ID                                       : 2
Format                                   : E-AC-3
Format/Info                              : Audio Coding 3
Format settings, Endianness              : Big
Codec ID                                 : A_EAC3
Duration                                 : 49mn 49s
Bit rate mode                            : Constant
Bit rate                                 : 640 Kbps
Channel(s)                               : 6 channels
Channel positions                        : Front: L C R, Side: L R, LFE
Sampling rate                            : 48.0 KHz
Frame rate                               : 187.500 fps (256 spf)
Compression mode                         : Lossy
Stream size                              : 228 MiB (5%)
Language                                 : English
Default                                  : Yes
Forced                                   : No

Text
ID                                       : 3
Format                                   : UTF-8
Codec ID                                 : S_TEXT/UTF8
Codec ID/Info                            : UTF-8 Plain Text
Duration                                 : 49mn 5s
Bit rate                                 : 60 bps
Count of elements                        : 675
Stream size                              : 21.7 KiB (0%)
Language                                 : English
Default                                  : No
Forced                                   : No



[/mediainfo]
Download
File Container: MKV
Video/Audio Codec: H264 (HIGH) EAC3
Video Resolution: 1920x1080
 
 
 

Show us some love

1 Response to "[RR/NF/UL] Doctor Who 2005 S10E01 1080p AMZN WEBRip DD5 1 x264-NTb (4.5GB)"
05/19/17
11:26:54
Admin

RapidRAR re-uploaded with new RAR file(s) (users who couldn't download some parts need to download all parts again).

Leave a Comment

  • (never displayed)
  •  
        Members don't see captchas. Sign Up / Sign In
  • Notify me via email when someone responds.
  • Subscribe my Feeds
  • Facebook

Latest Episodes

Popular Movies and TV Shows

  • Pulse
  • Alien: Covenant
  • Queen of the South
  • Zoo
  • Spawn
  • The Circle
  • Private Eyes
  • The Night Shift
  • Nashville
  • Showgirls
  • Charlie Charlie
  • The Drowning
  • Suits
  • Game of Thrones
  • Saving Hope
  • B.C. Butcher
  • Lola
  • Going in Style
  • Salvation
  • Blood Drive
  • Snowfall
  • The Girl from the Song
  • Aditi Mittal: Things They Wouldn't Let Me Say
  • Colossal
  • Shooter

Recent Comments

  • thaone:

    Thanks

  • Me (not logged in version): I haven't watched the movie, but NO, ultraIMG is just the image host that RMZ uses, so that company ...
  • thaone:

    Awesome, Thanks

  • Exfso: Yep, sucked in it has Korean subs as well, will have to wait for one that does not have these.
  • mda:

    1080p HEVC Please

  • mda:

    1080p HEVC please

  • mda:

    Yes thx, could we please have a 1080p HEVC encoding?

  • thaone:

    Thanks

  • RockB: The screenshot shows Ultraimg written at the bottom. Does the entire movie have this hardcoded?
  • thaone:

    Thanks