Sign Up   |   Sign In  

Announcements

Want to support us?
Buy a RapidRAR account from our resellers:
Buy or renew a NitroFlare account via THIS LINK

04/16

2017

3

Comments

Doctor Who 2005 S10E01 720p AMZN WEBRip DD5 1 x264-NTb
[RR/NF/UL/UR]
Size: 2.1GB mkv H264 (HIGH) / EAC3  HD  1280x720

Doctor Who
Click on the image to see full size
[RR/NF/UL/UR] Doctor Who 2005 S10E01 720p AMZN WEBRip DD5 1 x264-NTb (2.1GB) - Snapshot 1
File Information
[URL=http://imagecurl.com/viewer.php?file=18897028838235527680.png][IMG]http://imagecurl.com/images/18897028838235527680_thumb.png[/IMG][/URL]
[URL=http://imagecurl.com/viewer.php?file=82089737480334185140.png][IMG]http://imagecurl.com/images/82089737480334185140_thumb.png[/IMG][/URL]
[URL=http://imagecurl.com/viewer.php?file=22525814478853385056.png][IMG]http://imagecurl.com/images/22525814478853385056_thumb.png[/IMG][/URL]
[URL=http://imagecurl.com/viewer.php?file=00537788768257494642.png][IMG]http://imagecurl.com/images/00537788768257494642_thumb.png[/IMG][/URL]
[URL=http://imagecurl.com/viewer.php?file=70835373188496746222.png][IMG]http://imagecurl.com/images/70835373188496746222_thumb.png[/IMG][/URL]
[URL=http://imagecurl.com/viewer.php?file=91687329737717212643.png][IMG]http://imagecurl.com/images/91687329737717212643_thumb.png[/IMG][/URL]



[mediainfo]
Video
ID                                       : 1
Format                                   : AVC
Format/Info                              : Advanced Video Codec
Format profile                           : [email protected]
Format settings, CABAC                   : Yes
Format settings, ReFrames                : 9 frames
Codec ID                                 : V_MPEG4/ISO/AVC
Duration                                 : 49mn 49s
Bit rate                                 : 5 420 Kbps
Width                                    : 1 280 pixels
Height                                   : 720 pixels
Display aspect ratio                     : 16:9
Frame rate mode                          : Constant
Frame rate                               : 25.000 fps
Color space                              : YUV
Chroma subsampling                       : 4:2:0
Bit depth                                : 8 bits
Scan type                                : Progressive
Bits/(Pixel*Frame)                       : 0.235
Stream size                              : 1.89 GiB (89%)
Writing library                          : x264 core 148 r2638 7599210
 Encoding settings                        : cabac=1 / ref=9 / deblock=1:-3:-3 / analyse=0x3:0x133 / me=umh / subme=10 / psy=1 / psy_rd=1.00:0.00 / mixed_ref=1 / me_range=48 / chroma_me=1 / trellis=2 / 8x8dct=1 / cqm=0 / deadz / fast pskip=0 / chroma_qp_offset=-2 / threads=12 / lookahead_threads=2 / sliced_threads=0 / nr=0 / decimate=0 / interlaced=0 / bluray_compat=0 / c / bframes=9 / b_pyramid=0 / b_adapt=2 / b_bias=0 / direct=3 / weightb=1 / open_gop=0 / weightp=2 / keyint=250 / keyint_min=25 / scenecut=40 / intra_refresh=0 / rc=crf / mbtree=0 / crf=17.0 / qcomp=0.60 / qpmin=10 / qpmax=51 / qpstep=4 / ip_ratio=1.40 / pb_ratio=1.30 / aq=3:0.70
Default                                  : Yes
Forced                                   : No

Audio
ID                                       : 2
Format                                   : E-AC-3
Format/Info                              : Audio Coding 3
Format settings, Endianness              : Big
Codec ID                                 : A_EAC3
Duration                                 : 49mn 49s
Bit rate mode                            : Constant
Bit rate                                 : 640 Kbps
Channel(s)                               : 6 channels
Channel positions                        : Front: L C R, Side: L R, LFE
Sampling rate                            : 48.0 KHz
Frame rate                               : 187.500 fps (256 spf)
Compression mode                         : Lossy
Stream size                              : 228 MiB (11%)
Language                                 : English
Default                                  : Yes
Forced                                   : No

Text
ID                                       : 3
Format                                   : UTF-8
Codec ID                                 : S_TEXT/UTF8
Codec ID/Info                            : UTF-8 Plain Text
Duration                                 : 49mn 5s
Bit rate                                 : 60 bps
Count of elements                        : 675
Stream size                              : 21.7 KiB (0%)
Language                                 : English
Default                                  : No
Forced                                   : No



[/mediainfo]
Download
File Container: MKV
Video/Audio Codec: H264 (HIGH) EAC3
Video Resolution: 1280x720
 
 
 
 

Show us some love

3 Responses to "[RR/NF/UL/UR] Doctor Who 2005 S10E01 720p AMZN WEBRip DD5 1 x264-NTb (2.1GB)"
05/19/17
16:09:19
Admin

RapidRAR re-uploaded with new RAR file(s) (users who couldn't download some parts need to download all parts again).

05/19/17
16:09:19
Admin

RapidRAR re-uploaded with new RAR file(s) (users who couldn't download some parts need to download all parts again).

05/19/17
16:09:19
Admin

RapidRAR re-uploaded with new RAR file(s) (users who couldn't download some parts need to download all parts again).

Leave a Comment

  • (never displayed)
  •  
        Members don't see captchas. Sign Up / Sign In
  • Notify me via email when someone responds.
  • Subscribe my Feeds
  • Facebook

Latest Episodes

Popular Movies and TV Shows

  • Twin Peaks
  • Logan
  • Loaded
  • I'm Dying Up Here
  • Danger Close
  • The Prison
  • Into the Badlands
  • Silicon Valley
  • Lucifer
  • The Wizard of Lies
  • Beauty and the Beast
  • The LEGO Batman Movie
  • 12 Monkeys
  • Elementary
  • American Gods
  • Buster's Mal Heart
  • Spark: A Space Tail
  • Angélique, marquise des anges
  • The Leftovers
  • Genius
  • Twin Peaks
  • T2 Trainspotting
  • The Fate of the Furious
  • Becoming Bond
  • The Son

Recent Comments

  • David-A-H:

    Thank you

  • MahBoff: Thanks, haven't seen this in decades
  • David-A-H:

    Thank you

  • Baconlite: Hmmm... Actually I was looking for the full play of Spider-man Turn Off The Dark? Does anyone hav...
  • doff: you need an account for each of these sites at this file size. why not openload or clicknupload?
  • basiadora:

    This is series 8 (2017) - the final one. Series or season 9 is not supposed to happen.

  • thaone:

    Thanks

  • thaone:

    Thanks

  • thaone:

    Thanks

  • nik:

    Plz. reupload rapidrar link