Sign Up   |   Sign In  
MILF of NorwayI Saw the TV GlowHannah Einbinder: Everything Must GoThe ChiWelcome to WrexhamBratsThe Bold and the BeautifulSistasThe ChosenWith Love, Your Sweetly SaltedNotas sobre un veranoThe EgyptianWWE NXTThe BoysWalkerAssimilateMower MinionsMiddle of the NightEvilBridgertonCriminal MindsIn the Line of FireThe Artifice GirlLamp LifeThe Daily Show

Announcements

05/19

2024

No

Comments

Doctor Who 2023 S01E03 Boom 1080p DSNP WEB-DL DDP5 1 H 265-FLUX
[RR/NF/CU]
Size: 1.8GB mkv HEVC (MAIN 10) / EAC3  HD  1920x1080

Doctor Who
  • Doctor Who (2023-)
  • Genre: Adventure | Drama | Sci-Fi
  • Original Language: English
  • Original Network: Disney+
  • Storyline: The Time Lord known as the Doctor travels through space and time with his companions, having incredible adventures and facing dangerous enemies.
File Information
[img]http://lookpic.com/cdn/i2/t/0519202401292180-1.jpg[/img]
[img]http://lookpic.com/cdn/i2/t/0519202401292180-2.jpg[/img]
[img]http://lookpic.com/cdn/i2/t/0519202401292180-3.jpg[/img]

General
Unique ID                                : 252098217514773714145662692387221207080 (0xBDA859C12C44EE54B39DDDCCFE90F828)
Complete name                            : Doctor Who 2023 S01E03 Boom 1080p DSNP WEB-DL DDP5 1 H 265-FLUX.mkv
Format                                   : Matroska
Format version                           : Version 4
File size                                : 1.77 GiB
Duration                                 : 44 min 51 s
Overall bit rate                         : 5 656 kb/s
Frame rate                               : 25.000 FPS
Writing application                      : mkvmerge v83.0 ('Circle Of Friends') 64-bit
Writing library                          : libebml v1.4.5 + libmatroska v1.7.1

Video
ID                                       : 1
Format                                   : HEVC
Format/Info                              : High Efficiency Video Coding
Format profile                           : Main 10@L4@High
Codec ID                                 : V_MPEGH/ISO/HEVC
Duration                                 : 44 min 51 s
Bit rate                                 : 5 394 kb/s
Width                                    : 1 920 pixels
Height                                   : 1 080 pixels
Display aspect ratio                     : 16:9
Frame rate mode                          : Constant
Frame rate                               : 25.000 FPS
Color space                              : YUV
Chroma subsampling                       : 4:2:0
Bit depth                                : 10 bits
Bits/(Pixel*Frame)                       : 0.104
Stream size                              : 1.69 GiB (95%)
Language                                 : English
Default                                  : Yes
Forced                                   : No
Color range                              : Limited
Color primaries                          : BT.709
Transfer characteristics                 : BT.709
Matrix coefficients                      : BT.709

Audio
ID                                       : 2
Format                                   : E-AC-3
Format/Info                              : Enhanced AC-3
Commercial name                          : Dolby Digital Plus
Codec ID                                 : A_EAC3
Duration                                 : 44 min 51 s
Bit rate mode                            : Constant
Bit rate                                 : 256 kb/s
Channel(s)                               : 6 channels
Channel layout                           : L R C LFE Ls Rs
Sampling rate                            : 48.0 kHz
Frame rate                               : 31.250 FPS (1536 SPF)
Compression mode                         : Lossy
Stream size                              : 82.1 MiB (5%)
Language                                 : English
Service kind                             : Complete Main
Default                                  : Yes
Forced                                   : No

Text #1
ID                                       : 3
Format                                   : UTF-8
Codec ID                                 : S_TEXT/UTF8
Codec ID/Info                            : UTF-8 Plain Text
Duration                                 : 43 min 50 s
Bit rate                                 : 83 b/s
Frame rate                               : 0.305 FPS
Count of elements                        : 802
Stream size                              : 27.0 KiB (0%)
Title                                    : British
Language                                 : English (GB)
Default                                  : No
Forced                                   : No

Text #2
ID                                       : 4
Format                                   : UTF-8
Codec ID                                 : S_TEXT/UTF8
Codec ID/Info                            : UTF-8 Plain Text
Duration                                 : 43 min 52 s
Bit rate                                 : 94 b/s
Frame rate                               : 0.335 FPS
Count of elements                        : 881
Stream size                              : 30.3 KiB (0%)
Title                                    : British | SDH
Language                                 : English (GB)
Default                                  : No
Forced                                   : No

Text #3
ID                                       : 5
Format                                   : UTF-8
Codec ID                                 : S_TEXT/UTF8
Codec ID/Info                            : UTF-8 Plain Text
Duration                                 : 44 min 35 s
Bit rate                                 : 75 b/s
Frame rate                               : 0.265 FPS
Count of elements                        : 710
Stream size                              : 24.7 KiB (0%)
Language                                 : Czech
Default                                  : No
Forced                                   : No

Text #4
ID                                       : 6
Format                                   : UTF-8
Codec ID                                 : S_TEXT/UTF8
Codec ID/Info                            : UTF-8 Plain Text
Duration                                 : 44 min 35 s
Bit rate                                 : 78 b/s
Frame rate                               : 0.267 FPS
Count of elements                        : 715
Stream size                              : 25.6 KiB (0%)
Language                                 : Danish
Default                                  : No
Forced                                   : No

Text #5
ID                                       : 7
Format                                   : UTF-8
Codec ID                                 : S_TEXT/UTF8
Codec ID/Info                            : UTF-8 Plain Text
Duration                                 : 44 min 35 s
Bit rate                                 : 77 b/s
Frame rate                               : 0.289 FPS
Count of elements                        : 774
Stream size                              : 25.4 KiB (0%)
Language                                 : German
Default                                  : No
Forced                                   : No

Text #6
ID                                       : 8
Format                                   : UTF-8
Codec ID                                 : S_TEXT/UTF8
Codec ID/Info                            : UTF-8 Plain Text
Duration                                 : 44 min 35 s
Bit rate                                 : 127 b/s
Frame rate                               : 0.277 FPS
Count of elements                        : 741
Stream size                              : 41.7 KiB (0%)
Language                                 : Greek
Default                                  : No
Forced                                   : No

Text #7
ID                                       : 9
Format                                   : UTF-8
Codec ID                                 : S_TEXT/UTF8
Codec ID/Info                            : UTF-8 Plain Text
Duration                                 : 44 min 35 s
Bit rate                                 : 73 b/s
Frame rate                               : 0.248 FPS
Count of elements                        : 664
Stream size                              : 24.1 KiB (0%)
Title                                    : Latin American
Language                                 : Spanish (Latin America)
Default                                  : No
Forced                                   : No

Text #8
ID                                       : 10
Format                                   : UTF-8
Codec ID                                 : S_TEXT/UTF8
Codec ID/Info                            : UTF-8 Plain Text
Duration                                 : 44 min 35 s
Bit rate                                 : 78 b/s
Frame rate                               : 0.283 FPS
Count of elements                        : 756
Stream size                              : 25.7 KiB (0%)
Language                                 : Spanish (ES)
Default                                  : No
Forced                                   : No

Text #9
ID                                       : 11
Format                                   : UTF-8
Codec ID                                 : S_TEXT/UTF8
Codec ID/Info                            : UTF-8 Plain Text
Duration                                 : 44 min 35 s
Bit rate                                 : 75 b/s
Frame rate                               : 0.250 FPS
Count of elements                        : 669
Stream size                              : 24.7 KiB (0%)
Language                                 : Finnish
Default                                  : No
Forced                                   : No

Text #10
ID                                       : 12
Format                                   : UTF-8
Codec ID                                 : S_TEXT/UTF8
Codec ID/Info                            : UTF-8 Plain Text
Duration                                 : 44 min 35 s
Bit rate                                 : 75 b/s
Frame rate                               : 0.296 FPS
Count of elements                        : 791
Stream size                              : 24.8 KiB (0%)
Language                                 : French (FR)
Default                                  : No
Forced                                   : No

Text #11
ID                                       : 13
Format                                   : UTF-8
Codec ID                                 : S_TEXT/UTF8
Codec ID/Info                            : UTF-8 Plain Text
Duration                                 : 44 min 35 s
Bit rate                                 : 76 b/s
Frame rate                               : 0.284 FPS
Count of elements                        : 759
Stream size                              : 24.8 KiB (0%)
Language                                 : Hungarian
Default                                  : No
Forced                                   : No

Text #12
ID                                       : 14
Format                                   : UTF-8
Codec ID                                 : S_TEXT/UTF8
Codec ID/Info                            : UTF-8 Plain Text
Duration                                 : 44 min 35 s
Bit rate                                 : 70 b/s
Frame rate                               : 0.290 FPS
Count of elements                        : 775
Stream size                              : 23.1 KiB (0%)
Language                                 : Italian
Default                                  : No
Forced                                   : No

Text #13
ID                                       : 15
Format                                   : UTF-8
Codec ID                                 : S_TEXT/UTF8
Codec ID/Info                            : UTF-8 Plain Text
Duration                                 : 44 min 35 s
Bit rate                                 : 63 b/s
Frame rate                               : 0.295 FPS
Count of elements                        : 789
Stream size                              : 20.6 KiB (0%)
Language                                 : Japanese
Default                                  : No
Forced                                   : No

Text #14
ID                                       : 16
Format                                   : UTF-8
Codec ID                                 : S_TEXT/UTF8
Codec ID/Info                            : UTF-8 Plain Text
Duration                                 : 44 min 35 s
Bit rate                                 : 87 b/s
Frame rate                               : 0.298 FPS
Count of elements                        : 796
Stream size                              : 28.6 KiB (0%)
Language                                 : Korean
Default                                  : No
Forced                                   : No

Text #15
ID                                       : 17
Format                                   : UTF-8
Codec ID                                 : S_TEXT/UTF8
Codec ID/Info                            : UTF-8 Plain Text
Duration                                 : 44 min 35 s
Bit rate                                 : 64 b/s
Frame rate                               : 0.202 FPS
Count of elements                        : 540
Stream size                              : 21.2 KiB (0%)
Language                                 : Dutch
Default                                  : No
Forced                                   : No

Text #16
ID                                       : 18
Format                                   : UTF-8
Codec ID                                 : S_TEXT/UTF8
Codec ID/Info                            : UTF-8 Plain Text
Duration                                 : 44 min 35 s
Bit rate                                 : 72 b/s
Frame rate                               : 0.205 FPS
Count of elements                        : 548
Stream size                              : 23.8 KiB (0%)
Language                                 : Norwegian
Default                                  : No
Forced                                   : No

Text #17
ID                                       : 19
Format                                   : UTF-8
Codec ID                                 : S_TEXT/UTF8
Codec ID/Info                            : UTF-8 Plain Text
Duration                                 : 44 min 35 s
Bit rate                                 : 67 b/s
Frame rate                               : 0.281 FPS
Count of elements                        : 753
Stream size                              : 22.2 KiB (0%)
Language                                 : Polish
Default                                  : No
Forced                                   : No

Text #18
ID                                       : 20
Format                                   : UTF-8
Codec ID                                 : S_TEXT/UTF8
Codec ID/Info                            : UTF-8 Plain Text
Duration                                 : 44 min 35 s
Bit rate                                 : 76 b/s
Frame rate                               : 0.276 FPS
Count of elements                        : 738
Stream size                              : 25.1 KiB (0%)
Title                                    : Brazilian
Language                                 : Portuguese (BR)
Default                                  : No
Forced                                   : No

Text #19
ID                                       : 21
Format                                   : UTF-8
Codec ID                                 : S_TEXT/UTF8
Codec ID/Info                            : UTF-8 Plain Text
Duration                                 : 44 min 35 s
Bit rate                                 : 80 b/s
Frame rate                               : 0.297 FPS
Count of elements                        : 795
Stream size                              : 26.2 KiB (0%)
Language                                 : Portuguese (PT)
Default                                  : No
Forced                                   : No

Text #20
ID                                       : 22
Format                                   : UTF-8
Codec ID                                 : S_TEXT/UTF8
Codec ID/Info                            : UTF-8 Plain Text
Duration                                 : 44 min 35 s
Bit rate                                 : 74 b/s
Frame rate                               : 0.228 FPS
Count of elements                        : 609
Stream size                              : 24.2 KiB (0%)
Language                                 : Romanian
Default                                  : No
Forced                                   : No

Text #21
ID                                       : 23
Format                                   : UTF-8
Codec ID                                 : S_TEXT/UTF8
Codec ID/Info                            : UTF-8 Plain Text
Duration                                 : 44 min 35 s
Bit rate                                 : 71 b/s
Frame rate                               : 0.282 FPS
Count of elements                        : 755
Stream size                              : 23.3 KiB (0%)
Language                                 : Slovak
Default                                  : No
Forced                                   : No

Text #22
ID                                       : 24
Format                                   : UTF-8
Codec ID                                 : S_TEXT/UTF8
Codec ID/Info                            : UTF-8 Plain Text
Duration                                 : 44 min 35 s
Bit rate                                 : 77 b/s
Frame rate                               : 0.268 FPS
Count of elements                        : 718
Stream size                              : 25.4 KiB (0%)
Language                                 : Swedish
Default                                  : No
Forced                                   : No

Text #23
ID                                       : 25
Format                                   : UTF-8
Codec ID                                 : S_TEXT/UTF8
Codec ID/Info                            : UTF-8 Plain Text
Duration                                 : 44 min 35 s
Bit rate                                 : 79 b/s
Frame rate                               : 0.291 FPS
Count of elements                        : 779
Stream size                              : 26.0 KiB (0%)
Language                                 : Turkish
Default                                  : No
Forced                                   : No

Text #24
ID                                       : 26
Format                                   : UTF-8
Codec ID                                 : S_TEXT/UTF8
Codec ID/Info                            : UTF-8 Plain Text
Duration                                 : 44 min 35 s
Bit rate                                 : 71 b/s
Frame rate                               : 0.298 FPS
Count of elements                        : 798
Stream size                              : 23.3 KiB (0%)
Title                                    : Traditional
Language                                 : Chinese (Traditional)
Default                                  : No
Forced                                   : No

Menu
00:05:54.480                             : en:Intro
00:06:27.560                             : en:Scene 1
00:10:25.960                             : en:Scene 2
00:25:12.280                             : en:Scene 3
00:40:20.640                             : en:Scene 4
00:44:00.440                             : en:Credits



Download
File Container: MKV
Video/Audio Codec: HEVC (MAIN 10) EAC3
Video Resolution: 1920x1080
Please Login to post a comment.
If you don't have any account, please Register.
  • Subscribe my Feeds
  • Facebook
Encoding Queue:  x264  x265

Latest Episodes

Popular Movies and TV Shows

  • MILF of Norway
  • I Saw the TV Glow
  • Hannah Einbinder: Everything Must Go
  • The Chi
  • Welcome to Wrexham
  • Brats
  • The Bold and the Beautiful
  • Sistas
  • The Chosen
  • With Love, Your Sweetly Salted
  • Notas sobre un verano
  • The Egyptian
  • WWE NXT
  • The Boys
  • Walker
  • Assimilate
  • Mower Minions
  • Middle of the Night
  • Evil
  • Bridgerton
  • Criminal Minds
  • In the Line of Fire
  • The Artifice Girl
  • Lamp Life
  • The Daily Show

Recent Comments

Archives