Sign Up   |   Sign In  

Announcements

Want to support us?
Buy a RapidRAR account from our resellers:
Buy or renew a NitroFlare account via THIS LINK

04/15

2017

1

Comments

Doctor Who S10E01 WEBRip x264-RARBG
[RR/NF/UL/OL/OLw/UR/CU]
Size: 440MB MP4 Streaming mp4 H264 (HIGH) (AVC1) / AAC (LC) (MP4A) 720x400

Doctor Who
Click on the image to see full size
[RR/NF/UL/OL/OLw/UR/CU] Doctor Who S10E01 WEBRip x264-RARBG (440MB) - Snapshot 1[RR/NF/UL/OL/OLw/UR/CU] Doctor Who S10E01 WEBRip x264-RARBG (440MB) - Snapshot 2
File Information
[URL]http://www.imdb.com/title/tt0436992/[/URL]
[screenshots]
[URL=http://imagecurl.com/viewer.php?file=73403041249499013863.png][IMG]http://imagecurl.com/images/73403041249499013863_thumb.png[/IMG][/URL]
[URL=http://imagecurl.com/viewer.php?file=55953068970319576052.png][IMG]http://imagecurl.com/images/55953068970319576052_thumb.png[/IMG][/URL]
[URL=http://imagecurl.com/viewer.php?file=70665855361224499213.png][IMG]http://imagecurl.com/images/70665855361224499213_thumb.png[/IMG][/URL]
[URL=http://imagecurl.com/viewer.php?file=64148532499894831677.png][IMG]http://imagecurl.com/images/64148532499894831677_thumb.png[/IMG][/URL]

[/screenshots]


[mediainfo]
Video
ID                                       : 1
Format                                   : AVC
Format/Info                              : Advanced Video Codec
Format profile                           : [email protected]
Format settings, CABAC                   : Yes
Format settings, ReFrames                : 5 frames
Codec ID                                 : avc1
Codec ID/Info                            : Advanced Video Coding
Duration                                 : 49mn 40s
Bit rate                                 : 1 100 Kbps
Width                                    : 720 pixels
Height                                   : 400 pixels
Display aspect ratio                     : 16:9
Frame rate mode                          : Constant
Frame rate                               : 25.000 fps
Color space                              : YUV
Chroma subsampling                       : 4:2:0
Bit depth                                : 8 bits
Scan type                                : Progressive
Bits/(Pixel*Frame)                       : 0.153
Stream size                              : 393 MiB (89%)
Title                                    : RARBG.COM - Doctor.Who.S10E01.WEBRip.x264-RARBG
Writing library                          : x264 core 148 r2597M e86f3a1
 Encoding settings                        : cabac=1 / ref=5 / deblock=1:-1:-1 / analyse=0x3:0x113 / me=umh / subme=9 / psy=1 / psy_rd=1.00:0.15 / mixed_ref=1 / me_range=16 / chroma_me=1 / trellis=2 / 8x8dct=1 / cqm=0 / deadz / fast pskip=1 / chroma_qp_offset=-3 / threads=12 / lookahead_threads=1 / sliced_threads=0 / nr=0 / decimate=1 / interlaced=0 / bluray_compat=0 / c / bframes=3 / b_pyramid=2 / b_adapt=2 / b_bias=0 / direct=3 / weightb=1 / open_gop=0 / weightp=2 / keyint=250 / keyint_min=25 / scenecut=40 / intra_refresh=0 / rc_lookahead=50 / rc=abr / mbtree=1 / bitrate=1100 / ratetol=1.0 / qcomp=0.60 / qpmin=0 / qpmax=69 / qpstep=4 / ip_ratio=1.40 / aq=1:1.00
Encoded date                             : UTC 2017-04-15 21:40:44
Tagged date                              : UTC 2017-04-15 21:40:44

Audio
ID                                       : 2
Format                                   : AAC
Format/Info                              : Advanced Audio Codec
Format profile                           : LC
Codec ID                                 : 40
Duration                                 : 49mn 40s
Duration_LastFrame                       : -11ms
Bit rate mode                            : Constant
Bit rate                                 : 128 Kbps
Channel(s)                               : 2 channels
Channel positions                        : Front: L R
Sampling rate                            : 48.0 KHz
Frame rate                               : 46.875 fps (1024 spf)
Compression mode                         : Lossy
Stream size                              : 45.5 MiB (10%)
Title                                    : RARBG.COM - Doctor.Who.S10E01.WEBRip.x264-RARBG
Default                                  : Yes
Alternate group                          : 1
Encoded date                             : UTC 2017-04-15 21:40:44
Tagged date                              : UTC 2017-04-15 21:40:44



[/mediainfo]
Download
File Container: MP4
Video/Audio Codec: H264 (HIGH) (AVC1) AAC (LC) (MP4A)
Video Resolution: 720x400
 
 
 
 
 
 
Watch Online [MP4]

Show us some love

1 Response to "[RR/NF/UL/OL/OLw/UR/CU] Doctor Who S10E01 WEBRip x264-RARBG (440MB)"
05/19/17
11:27:32
Admin

RapidRAR re-uploaded with new RAR file(s) (users who couldn't download some parts need to download all parts again).

Leave a Comment

  • (never displayed)
  •  
        Members don't see captchas. Sign Up / Sign In
  • Notify me via email when someone responds.
  • Subscribe my Feeds
  • Facebook

Latest Episodes

Popular Movies and TV Shows

  • Dark Matter
  • The Originals
  • King Arthur: Legend of the Sword
  • Wynonna Earp
  • Kong: Skull Island
  • Gao geung jing dou fu
  • Riviera
  • GLOW
  • The Mist
  • Personal Shopper
  • Stefan Zweig: Farewell to Europe
  • The Bad Batch
  • Free Rein
  • Queen of the South
  • Fargo
  • 10 Days in a Madhouse
  • Sono otoko, kyôbô ni tsuki
  • Secretary
  • Powerless
  • Blood Drive
  • Ripped
  • Nashville
  • You Get Me
  • Sadie's Last Days on Earth
  • Genius

Recent Comments

  • frankwysz:

    Please DL Episode 1 of Season 2

  • CharMir:

    Are you not doing Web dl for this series anymore?

  • LycanHD: Everybody keep calm and download Kong LOLftp://Guest:[email protected]/Movies/2017 Releases/Kong.S...
  • !7320!!myxxxbase.mobi: 6821 <a href="http://myxxxbase.mobi/">http://myxxxbase.mobi/</a> 7398 http://m...
  • Renee:

    Sound very badly out of sync. Dont download

  • Ali-sensei93:

    no sound with openload.video is fine but without any sound whatsoever how can fix this

  • P:

    Thank you very much!

  • !!!!!6480!!!!!myxxxbase.mobi: 1854 <a href="http://myxxxbase.mobi/">http://myxxxbase.mobi/</a> 2599 http://m...
  • fred:

    files all down, possible reupload?

    thanks

  • !!!!7967!!!myxxxbase.mobi: 1896 <a href="http://myxxxbase.mobi/">http://myxxxbase.mobi/</a> 4691 http://m...