Sign Up   |   Sign In  

Announcements

Want to support us?
Buy a RapidRAR account from our resellers:
Buy or renew a NitroFlare account via THIS LINK

06/18

2017

No

Comments

Doctor Who S10E10 WEBRip x264-RARBG
[RR/NF/UL/OL/OLw/UR/CU]
Size: 377MB mp4 H264 (HIGH) (AVC1) / AAC (LC) (MP4A) 720x400

Doctor Who
Click on the image to see full size
[RR/NF/UL/OL/OLw/UR/CU] Doctor Who S10E10 WEBRip x264-RARBG (377MB) - Snapshot 1[RR/NF/UL/OL/OLw/UR/CU] Doctor Who S10E10 WEBRip x264-RARBG (377MB) - Snapshot 2
File Information
[URL]http://www.imdb.com/title/tt0436992/[/URL]
[screenshots]
[URL=http://imagecurl.com/viewer.php?file=42334911180277343051.png][IMG]http://imagecurl.com/images/42334911180277343051_thumb.png[/IMG][/URL]
[URL=http://imagecurl.com/viewer.php?file=89418417805177153523.png][IMG]http://imagecurl.com/images/89418417805177153523_thumb.png[/IMG][/URL]
[URL=http://imagecurl.com/viewer.php?file=92930526869824467112.png][IMG]http://imagecurl.com/images/92930526869824467112_thumb.png[/IMG][/URL]
[URL=http://imagecurl.com/viewer.php?file=37784011826824653124.png][IMG]http://imagecurl.com/images/37784011826824653124_thumb.png[/IMG][/URL]

[/screenshots]


[mediainfo]
Video
ID                                       : 1
Format                                   : AVC
Format/Info                              : Advanced Video Codec
Format profile                           : [email protected]
Format settings, CABAC                   : Yes
Format settings, ReFrames                : 5 frames
Codec ID                                 : avc1
Codec ID/Info                            : Advanced Video Coding
Duration                                 : 42mn 27s
Bit rate                                 : 1 100 Kbps
Width                                    : 720 pixels
Height                                   : 400 pixels
Display aspect ratio                     : 16:9
Frame rate mode                          : Constant
Frame rate                               : 25.000 fps
Color space                              : YUV
Chroma subsampling                       : 4:2:0
Bit depth                                : 8 bits
Scan type                                : Progressive
Bits/(Pixel*Frame)                       : 0.153
Stream size                              : 336 MiB (89%)
Title                                    : RARBG.COM - Doctor.Who.S10E10.WEBRip.x264-RARBG
Writing library                          : x264 core 148 r2597M e86f3a1
 Encoding settings                        : cabac=1 / ref=5 / deblock=1:-1:-1 / analyse=0x3:0x113 / me=umh / subme=9 / psy=1 / psy_rd=1.00:0.15 / mixed_ref=1 / me_range=16 / chroma_me=1 / trellis=2 / 8x8dct=1 / cqm=0 / deadz / fast pskip=1 / chroma_qp_offset=-3 / threads=12 / lookahead_threads=1 / sliced_threads=0 / nr=0 / decimate=1 / interlaced=0 / bluray_compat=0 / c / bframes=3 / b_pyramid=2 / b_adapt=2 / b_bias=0 / direct=3 / weightb=1 / open_gop=0 / weightp=2 / keyint=250 / keyint_min=25 / scenecut=40 / intra_refresh=0 / rc_lookahead=50 / rc=abr / mbtree=1 / bitrate=1100 / ratetol=1.0 / qcomp=0.60 / qpmin=0 / qpmax=69 / qpstep=4 / ip_ratio=1.40 / aq=1:1.00
Encoded date                             : UTC 2017-06-18 15:55:22
Tagged date                              : UTC 2017-06-18 15:55:22

Audio
ID                                       : 2
Format                                   : AAC
Format/Info                              : Advanced Audio Codec
Format profile                           : LC
Codec ID                                 : 40
Duration                                 : 42mn 28s
Bit rate mode                            : Constant
Bit rate                                 : 128 Kbps
Channel(s)                               : 2 channels
Channel positions                        : Front: L R
Sampling rate                            : 48.0 KHz
Frame rate                               : 46.875 fps (1024 spf)
Compression mode                         : Lossy
Stream size                              : 38.9 MiB (10%)
Title                                    : RARBG.COM - Doctor.Who.S10E10.WEBRip.x264-RARBG
Language                                 : English
Default                                  : Yes
Alternate group                          : 1
Encoded date                             : UTC 2017-06-18 15:55:22
Tagged date                              : UTC 2017-06-18 15:55:22



[/mediainfo]
Download
File Container: MP4
Video/Audio Codec: H264 (HIGH) (AVC1) AAC (LC) (MP4A)
Video Resolution: 720x400
 
 
 
 
 
 
Watch Online [MP4]

Show us some love

Leave a Comment

  • (never displayed)
  •  
        Members don't see captchas. Sign Up / Sign In
  • Notify me via email when someone responds.
  • Subscribe my Feeds
  • Facebook

Latest Episodes

Popular Movies and TV Shows

  • Miso Hungry
  • DuckTales
  • Spider-Man
  • The Orville
  • Innocent Blood
  • Scorned
  • Layover
  • Mike Judge Presents: Tales from the Tour Bus
  • Room 104
  • #Stuck
  • Zoo
  • Chris Brown: Welcome to My Life
  • Subterranea
  • The Book of Henry
  • Gotham
  • Killing Gunther
  • Mr. Mercedes
  • I am Frankie
  • Lone Wolves
  • Bad Blood
  • Better Things
  • Ghosted
  • The Little Hours
  • Pirates of the Caribbean: Dead Men Tell No Tales
  • Baby Driver

Recent Comments