Sign Up   |   Sign In  
The Fall GuyThe VeilAll AmericanBetter Call SaulSeize Them!Law Abiding CitizenYoung SheldonLet's Make a DealThe EqualizerThe Name of the RoseTMZ Presents: The Downfall of DiddyArthur the KingTrackerThe Green VeilDevil in the FleshThe SimpsonsTales of Ordinary MadnessGolden KamuyCSI: VegasThe SympathizerKrapopolisTriple FrontierChallengersA Walk Among the TombstonesBeacon 23

Announcements

04/14

2024

No

Comments

Eerie Indiana S01 DVDRip 720p Upscale x265 OPUS-QAAC-CKlicious
[RR/NF]
Size: 5.6GB mkv HEVC (MAIN 10) / OPUS  HD  1280x720 TV Pack

Eerie, Indiana
File Information
                                         .::.                                   
                                     +%@#*++*%##*                               
                                   +@@@%@%%%%*##%%                              
                                  *@#+----*#%%%%%##                             
                                  %#+--:.....:-=#%@:                            
                                  %#+=-:.....::-=#%                             
                                  %%*++*-::::::-+#=                              
                                 +%*+=::-::**#-=+%.                             
                                 :%#*-:.:::::::-+*.                             
                                  -%*=-:*+=-::=*#-                              
            ..                     %#****%#+--+*=                               
          --.::..                  %%#*+==-=%##%               .:::.            
        :=--::..:.                 %@@#*+*++#@@.             .:.:-::--          
      :-==--+===*=.               +%%@%##**#@#*             .==-=::::-:-.       
     -+++++**-:.        .    .--=+#%%%%%%%%%***--           .-+*%*=#+++-+=      
     *-=#%         .:--::...::--==+##%%@@@%*+++=-::.--:--.         ..%#=:=.     
   .*+=-=+       .==--:::..::-:---===+*#%#+-----::--:...:::--        .*++=+.    
   *=-----   ..---++=---::::::::---:-=-+-+-:..::::::::..:::-==+.      +=-===:   
  #+-::---.==-::..:**+=--------:----:--=-=----...:.::::::--=+..::-=. .++---=+-  
 =#=-:::-====-:::.::##*+=-------=::--=-+==--:-:---:-::::-=**=:::::--+#*==---+%. 
 %*+--::=-=====--==+%%%#*+=+==----:---+*-#+-::::----====+*%+==-----==+*-====+*# 
 #*+=-::-++++***#*++%%%%%#**+*-=--:::-+**#+--:---===++*#%@%%%##**+++=++-===++*# 
 ##+++=--===----==*#%%%%%%####*=+-===-++=##===-===*+**#%%%@%#+==--++=--====++*# 
.*#*#*#*=----=++*##* ##**#%####**++++**--*#*++=+***##%*==#@.###*+==---==*++#*%%.
*###*==+++****###:.  =#**#%#**==--::..:..::.:-==+*#%%#==+*-  .*##*##*+===**##**#
 .#######*:...        ###*##+=-==--::::-:--::::----==+++*#      .+#######%####: 
                      .###*+=#+++===--------:-----*=*+++#.                      
                       .###**=+##**+++++=*++++++++=++###                        
                        .##*=*=+==---:----::::-=*=+++*#                         
                          **#++**+===-=--=----==++=+**.               CKlicious.
________________________________________________________________________________

Eerie.Indiana.S01.DVDRip.720p.Upscale.x265.OPUS-QAAC-CKlicious

Video: DVD source -> VITVC + QTGMC -> AI Upscale -> x265
Audio (5.1 Surround): DVD source -> Libav -> OPUS (256kbps VBR)
Audio (Stereo): DVD source -> Libav -> QACC (Q=63)

All episodes features english audios and subtitles.
________________________________________________________________________________

S01E01: "Forever Ware" - Aired: September 15, 1991
S01E02: "The Retainer" - Aired: September 22, 1991
S01E03: "The ATM with the Heart of Gold" - Aired: September 29, 1991
S01E04: "The Losers" - Aired: October 6, 1991
S01E05: "America's Scariest Home Video" - Aired: October 20, 1991
S01E06: "Just Say No Fun" - Aired: October 27, 1991
S01E07: "Heart on a Chain" - Aired: November 3, 1991
S01E08: "Dead Letter" - Aired: November 10, 1991
S01E09: "Who's Who" - Aired: November 17, 1991
S01E10: "The Lost Hour" - Aired: December 1, 1991
S01E11: "Marshall's Theory of Believability" - Aired: February 2, 1992
S01E12: "Tornado Days" - Aired: March 1, 1992
S01E13: "The Hole in the Wall Gang" - Aired: March 1, 1992
S01E14: "Mr. Chaney" - Aired: March 8, 1992
S01E15: "No Brain, No Pain" - Aired: March 15, 1992
S01E16: "The Loyal Order of Corn" - Aired: March 22, 1992
S01E17: "Zombies in P.J.s" - Aired: April 12, 1992
S01E18: "Reality Takes a Holiday" - Aired: April 12, 1992
S01E19: "The Broken Record" - Aired: December 9, 1993
________________________________________________________________________________

General
Format                         : Matroska
Format version                 : Version 4 / Version 2
File size                      : 284 MiB
Duration                       : 24 min 35 s
Overall bit rate               : 1 612 kb/s
Frame rate                     : 23.976 FPS
Encoded date                   : 2024-04-13 23:42:44 UTC
Writing application            : mkvmerge v81.0 ('Milliontown') 64-bit
Writing library                : libebml v1.4.4 + libmatroska v1.7.1 / qaac 2.79, CoreAudioToolbox 7.10.9.0, AAC-LC Encoder, TVBR q64, Quality 96

Video
ID                             : 1
Format                         : HEVC
Format/Info                    : High Efficiency Video Coding
Format profile                 : Main 10@L3.1@Main
Codec ID                       : V_MPEGH/ISO/HEVC
Duration                       : 24 min 35 s
Bit rate                       : 1 331 kb/s
Width                          : 1 280 pixels
Height                         : 720 pixels
Display aspect ratio           : 16:9
Frame rate mode                : Constant
Frame rate                     : 23.976 (24000/1001) FPS
Color space                    : YUV
Chroma subsampling             : 4:2:0
Bit depth                      : 10 bits
Bits/(Pixel*Frame)             : 0.060
Stream size                    : 234 MiB (83%)
Language                       : English
Default                        : Yes
Forced                         : No
Color range                    : Limited
Matrix coefficients            : BT.470 System B/G

Audio #1
ID                             : 2
Format                         : Opus
Codec ID                       : A_OPUS
Duration                       : 24 min 35 s
Bit rate                       : 202 kb/s
Channel(s)                     : 6 channels
Channel layout                 : L R C Lb Rb LFE
Sampling rate                  : 48.0 kHz
Frame rate                     : 50.000 FPS (960 SPF)
Compression mode               : Lossy
Stream size                    : 35.6 MiB (13%)
Writing library                : opusenc from opus-tools 0.2-29-gecd50e5
Language                       : English
Default                        : No
Forced                         : No
ENCODER_OPTIONS                : --bitrate 256

Audio #2
ID                             : 3
Format                         : AAC LC
Format/Info                    : Advanced Audio Codec Low Complexity
Codec ID                       : A_AAC-2
Duration                       : 24 min 35 s
Bit rate                       : 76.1 kb/s
Channel(s)                     : 2 channels
Channel layout                 : L R
Sampling rate                  : 48.0 kHz
Frame rate                     : 46.875 FPS (1024 SPF)
Compression mode               : Lossy
Stream size                    : 13.4 MiB (5%)
Language                       : English
Default                        : No
Forced                         : No

Text
ID                             : 4
Format                         : UTF-8
Codec ID                       : S_TEXT/UTF8
Codec ID/Info                  : UTF-8 Plain Text
Duration                       : 24 min 5 s
Bit rate                       : 80 b/s
Frame rate                     : 0.282 FPS
Count of elements              : 408
Stream size                    : 14.3 KiB (0%)
Language                       : English
Default                        : No
Forced                         : No

Menu
00:00:00.000                   : en:Chapter 01
00:03:42.956                   : en:Chapter 02
00:08:06.252                   : en:Chapter 03
00:11:57.450                   : en:Chapter 04
00:16:05.130                   : en:Chapter 05
00:20:12.377                   : en:Chapter 06
Download
File Container: MKV
Video/Audio Codec: HEVC (MAIN 10) OPUS
Video Resolution: 1280x720
Please Login to post a comment.
If you don't have any account, please Register.
  • Subscribe my Feeds
  • Facebook
Encoding Queue:  x264  x265

Latest Episodes

Popular Movies and TV Shows

  • The Fall Guy
  • The Veil
  • All American
  • Better Call Saul
  • Seize Them!
  • Law Abiding Citizen
  • Young Sheldon
  • Let's Make a Deal
  • The Equalizer
  • The Name of the Rose
  • TMZ Presents: The Downfall of Diddy
  • Arthur the King
  • Tracker
  • The Green Veil
  • Devil in the Flesh
  • The Simpsons
  • Tales of Ordinary Madness
  • Golden Kamuy
  • CSI: Vegas
  • The Sympathizer
  • Krapopolis
  • Triple Frontier
  • Challengers
  • A Walk Among the Tombstones
  • Beacon 23

Recent Comments

  • Bud: Is the search engine down for everyone, or just me? It just says 'You're forbidden!' whenever I lo...
  • 23d1:

    not episode 4 it is episode 3

  • 23d1:

    not episode 4 it is episode 3

  • 23d1:

    not episode 4 it is episode 3

  • 23d1:

    not episode 4 it is episode 3

  • aaroz88:

    Trimas!!

  • mptoo: I don't often ask this, infact this would be the first time, but I don't suppose there is any chance...
  • Cinque_Persson:

    btw:
    quote /quote
    is broken

  • gabrielsyme:

    Sorry but where is the clicknupload link?

  • mike1204:

    Is this episode doomed??? The RMX avi version is only 12 minutes long!!!

  • waanaabe:

    Could PUSHING DAISES kindly be upoaded to CU? THANKS!

Archives