Sign Up   |   Sign In  
The Fall GuyBoy Kills WorldSeize Them!Young SheldonInside the Force: 24/7WWE RawThe VeilBetter Call SaulStress PositionsAll AmericanGolden KamuyHangs Upon NothingLet's Make a DealThe Name of the RoseThe EqualizerTrackerDevil in the FleshTMZ Presents: The Downfall of DiddyThe SimpsonsS.W.A.T.CSI: VegasTales of Ordinary MadnessArthur the KingChallengersBeacon 23

Announcements

04/12

2024

No

Comments

Elsbeth S01E04 Love Knocked Off 720p AMZN WEB-DL DDP5 1 H 264-FLUX
[RR/NF/CU]
Size: 1.2GB mkv H264 (HIGH) / EAC3  HD  1280x720

Elsbeth
File Information
[img]http://lookpic.com/cdn/i2/t/0412202407004425-1.jpg[/img]
[img]http://lookpic.com/cdn/i2/t/0412202407004425-2.jpg[/img]
[img]http://lookpic.com/cdn/i2/t/0412202407004425-3.jpg[/img]

General
Unique ID                                : 114952326342069896921619695692337090533 (0x567B0343728CEA9BD6D202DB265B8FE5)
Complete name                            : Elsbeth S01E04 Love Knocked Off 720p AMZN WEB-DL DDP5 1 H 264-FLUX.mkv
Format                                   : Matroska
Format version                           : Version 4
File size                                : 1.21 GiB
Duration                                 : 43 min 12 s
Overall bit rate                         : 3 993 kb/s
Frame rate                               : 23.976 FPS
Writing application                      : mkvmerge v83.0 ('Circle Of Friends') 64-bit
Writing library                          : libebml v1.4.5 + libmatroska v1.7.1

Video
ID                                       : 1
Format                                   : AVC
Format/Info                              : Advanced Video Codec
Format profile                           : High@L3.1
Format settings                          : CABAC / 4 Ref Frames
Format settings, CABAC                   : Yes
Format settings, Reference frames        : 4 frames
Codec ID                                 : V_MPEG4/ISO/AVC
Duration                                 : 43 min 12 s
Bit rate mode                            : Constant
Bit rate                                 : 3 350 kb/s
Nominal bit rate                         : 6 000 kb/s
Width                                    : 1 280 pixels
Height                                   : 720 pixels
Display aspect ratio                     : 16:9
Frame rate mode                          : Constant
Frame rate                               : 23.976 (24000/1001) FPS
Color space                              : YUV
Chroma subsampling                       : 4:2:0
Bit depth                                : 8 bits
Scan type                                : Progressive
Bits/(Pixel*Frame)                       : 0.152
Stream size                              : 1.01 GiB (84%)
Language                                 : English (US)
Default                                  : Yes
Forced                                   : No
Color range                              : Limited
Color primaries                          : BT.709
Transfer characteristics                 : BT.709
Matrix coefficients                      : BT.709

Audio
ID                                       : 2
Format                                   : E-AC-3
Format/Info                              : Enhanced AC-3
Commercial name                          : Dolby Digital Plus
Codec ID                                 : A_EAC3
Duration                                 : 43 min 12 s
Bit rate mode                            : Constant
Bit rate                                 : 640 kb/s
Channel(s)                               : 6 channels
Channel layout                           : L R C LFE Ls Rs
Sampling rate                            : 48.0 kHz
Frame rate                               : 31.250 FPS (1536 SPF)
Compression mode                         : Lossy
Stream size                              : 198 MiB (16%)
Language                                 : English
Service kind                             : Complete Main
Default                                  : Yes
Forced                                   : No

Text #1
ID                                       : 3
Format                                   : UTF-8
Codec ID                                 : S_TEXT/UTF8
Codec ID/Info                            : UTF-8 Plain Text
Duration                                 : 42 min 43 s
Bit rate                                 : 98 b/s
Frame rate                               : 0.401 FPS
Count of elements                        : 1029
Stream size                              : 30.8 KiB (0%)
Language                                 : English (US)
Default                                  : No
Forced                                   : No

Text #2
ID                                       : 4
Format                                   : UTF-8
Codec ID                                 : S_TEXT/UTF8
Codec ID/Info                            : UTF-8 Plain Text
Duration                                 : 42 min 43 s
Bit rate                                 : 102 b/s
Frame rate                               : 0.415 FPS
Count of elements                        : 1063
Stream size                              : 32.1 KiB (0%)
Title                                    : SDH
Language                                 : English (US)
Default                                  : No
Forced                                   : No

Menu
00:00:00.000                             : en:Scene 1
00:42:46.000                             : en:End Credits



Download
File Container: MKV
Video/Audio Codec: H264 (HIGH) EAC3
Video Resolution: 1280x720
Please Login to post a comment.
If you don't have any account, please Register.
  • Subscribe my Feeds
  • Facebook
Encoding Queue:  x264  x265

Latest Episodes

Popular Movies and TV Shows

  • The Fall Guy
  • Boy Kills World
  • Seize Them!
  • Young Sheldon
  • Inside the Force: 24/7
  • WWE Raw
  • The Veil
  • Better Call Saul
  • Stress Positions
  • All American
  • Golden Kamuy
  • Hangs Upon Nothing
  • Let's Make a Deal
  • The Name of the Rose
  • The Equalizer
  • Tracker
  • Devil in the Flesh
  • TMZ Presents: The Downfall of Diddy
  • The Simpsons
  • S.W.A.T.
  • CSI: Vegas
  • Tales of Ordinary Madness
  • Arthur the King
  • Challengers
  • Beacon 23

Recent Comments

  • mentalityx:

    Thx mate.

  • Bud: Is the search engine down for everyone, or just me? It just says 'You're forbidden!' whenever I lo...
  • 23d1:

    not episode 4 it is episode 3

  • 23d1:

    not episode 4 it is episode 3

  • 23d1:

    not episode 4 it is episode 3

  • 23d1:

    not episode 4 it is episode 3

  • aaroz88:

    Trimas!!

  • mptoo: I don't often ask this, infact this would be the first time, but I don't suppose there is any chance...
  • Cinque_Persson:

    btw:
    quote /quote
    is broken

  • gabrielsyme:

    Sorry but where is the clicknupload link?

  • mike1204:

    Is this episode doomed??? The RMX avi version is only 12 minutes long!!!

Archives