Sign Up   |   Sign In  
Star Trek: DiscoveryCrewA Condition Called LoveShark TankBright AngelDisneynature: Wings of LifeThe Fall GuyHacksThe Blue AngelsEvilGarouden: The Way of the Lone WolfReunionThe Good DoctorGrey's AnatomyConcordiaWater's EdgeCarol Doda Topless at the CondorLadies and Gentlemen: The Rolling StonesChicago FireChicago P.D.FBIMad GodBoy Kills WorldAfflictionThe Rookie

Announcements

04/12

2024

1

Comments

Elsbeth S01E04 Love Knocked Off 720p AMZN WEB-DL DDP5 1 H 264-NTb
[RR/NF/CU]
Size: 1.1GB mkv H264 (HIGH) / EAC3  HD  1280x720

Elsbeth
File Information
[img]http://lookpic.com/cdn/i2/t/0412202415413244-1.jpg[/img]
[img]http://lookpic.com/cdn/i2/t/0412202415413244-2.jpg[/img]
[img]http://lookpic.com/cdn/i2/t/0412202415413244-3.jpg[/img]

General
Unique ID                                : 25763425687961551514782927731757222075 (0x1361DAF4F4F071D293C4A2F6325908BB)
Complete name                            : Elsbeth.S01E04.Love.Knocked.Off.720p.AMZN.WEB-DL.DDP5.1.H.264-NTb.mkv
Format                                   : Matroska
Format version                           : Version 4
File size                                : 1.11 GiB
Duration                                 : 43 min 16 s
Overall bit rate                         : 3 672 kb/s
Frame rate                               : 23.976 FPS
Writing application                      : mkvmerge v81.0 ('Milliontown') 64-bit
Writing library                          : libebml v1.4.4 + libmatroska v1.7.1

Video
ID                                       : 1
Format                                   : AVC
Format/Info                              : Advanced Video Codec
Format profile                           : High@L3.1
Format settings                          : CABAC / 4 Ref Frames
Format settings, CABAC                   : Yes
Format settings, Reference frames        : 4 frames
Codec ID                                 : V_MPEG4/ISO/AVC
Duration                                 : 43 min 16 s
Bit rate mode                            : Constant
Bit rate                                 : 3 029 kb/s
Nominal bit rate                         : 4 000 kb/s
Width                                    : 1 280 pixels
Height                                   : 720 pixels
Display aspect ratio                     : 16:9
Frame rate mode                          : Constant
Frame rate                               : 23.976 (24000/1001) FPS
Color space                              : YUV
Chroma subsampling                       : 4:2:0
Bit depth                                : 8 bits
Scan type                                : Progressive
Bits/(Pixel*Frame)                       : 0.137
Stream size                              : 938 MiB (83%)
Default                                  : Yes
Forced                                   : No
Color range                              : Limited
Color primaries                          : BT.709
Transfer characteristics                 : BT.709
Matrix coefficients                      : BT.709

Audio
ID                                       : 2
Format                                   : E-AC-3
Format/Info                              : Enhanced AC-3
Commercial name                          : Dolby Digital Plus
Codec ID                                 : A_EAC3
Duration                                 : 43 min 16 s
Bit rate mode                            : Constant
Bit rate                                 : 640 kb/s
Channel(s)                               : 6 channels
Channel layout                           : L R C LFE Ls Rs
Sampling rate                            : 48.0 kHz
Frame rate                               : 31.250 FPS (1536 SPF)
Compression mode                         : Lossy
Stream size                              : 198 MiB (17%)
Language                                 : English (US)
Service kind                             : Complete Main
Default                                  : Yes
Forced                                   : No

Text #1
ID                                       : 3
Format                                   : UTF-8
Codec ID                                 : S_TEXT/UTF8
Codec ID/Info                            : UTF-8 Plain Text
Duration                                 : 42 min 50 s
Bit rate                                 : 98 b/s
Frame rate                               : 0.400 FPS
Count of elements                        : 1029
Stream size                              : 31.1 KiB (0%)
Language                                 : English (US)
Default                                  : No
Forced                                   : No

Text #2
ID                                       : 4
Format                                   : UTF-8
Codec ID                                 : S_TEXT/UTF8
Codec ID/Info                            : UTF-8 Plain Text
Duration                                 : 42 min 50 s
Bit rate                                 : 102 b/s
Frame rate                               : 0.414 FPS
Count of elements                        : 1063
Stream size                              : 32.3 KiB (0%)
Title                                    : SDH
Language                                 : English (US)
Default                                  : No
Forced                                   : No



Download
File Container: MKV
Video/Audio Codec: H264 (HIGH) EAC3
Video Resolution: 1280x720

1 Response to "[RR/NF/CU] Elsbeth S01E04 Love Knocked Off 720p AMZN WEB-DL DDP5 1 H 264-NTb (1.1GB)"
04/12/24
17:03:08
ReadyPlayerOne

Thank You

Please Login to post a comment.
If you don't have any account, please Register.
  • Subscribe my Feeds
  • Facebook
Encoding Queue:  x264  x265

Latest Episodes

Popular Movies and TV Shows

  • Star Trek: Discovery
  • Crew
  • A Condition Called Love
  • Shark Tank
  • Bright Angel
  • Disneynature: Wings of Life
  • The Fall Guy
  • Hacks
  • The Blue Angels
  • Evil
  • Garouden: The Way of the Lone Wolf
  • Reunion
  • The Good Doctor
  • Grey's Anatomy
  • Concordia
  • Water's Edge
  • Carol Doda Topless at the Condor
  • Ladies and Gentlemen: The Rolling Stones
  • Chicago Fire
  • Chicago P.D.
  • FBI
  • Mad God
  • Boy Kills World
  • Affliction
  • The Rookie

Recent Comments

  • meyat74:

    please add if possible new episodes 5-6

  • DuranDuran: THE MS PAT show = Does anyone have BOTH the MS PAT show (SEASON 3)-and- (SEASON 4) that just came ou...
  • big_ralphie: Just sitting down to watch and, yes there are subtitles...in ITALIAN ONLY. ENGLISH subs might be hel...
  • Geependo:

    All links are dead

  • OldMovies:

    Has Czech subtitles but not English. Need forced English for the foreign language parts.

  • PROFessorMorrynarty: Would it be possible to upload 'Lego masters Australia' Series 6 Episode 6 Please? It's the only one...
  • mentalityx:

    Thx mate.

  • Bud: Is the search engine down for everyone, or just me? It just says 'You're forbidden!' whenever I lo...

Archives