Sign Up   |   Sign In  
Civil WarSouth Park: The End of ObesityWWE Smackdown!AtlasSister Boniface MysteriesMcDonald & DoddsSouth ParkAbbott ElementaryFuriosa: A Mad Max SagaBilly Corgan's Adventures in CarnylandThe Beach BoysThe Human FactorElsbethStar Trek: DiscoveryThe RookieThe Fall GuyAmerican StarCrew9-1-1Grey's AnatomyStation 19The Blue AngelsReunionWhere Eagles DareThe Daily Show

Announcements

04/19

2024

1

Comments

Elsbeth S01E05 Ball Girl 1080p AMZN WEB-DL DDP5 1 H 264-NTb
[RR/NF]
Size: 2.3GB mkv H264 (HIGH) / EAC3  HD  1920x1080

Elsbeth
File Information
[img]http://lookpic.com/cdn/i2/t/0419202408254613-1.jpg[/img]
[img]http://lookpic.com/cdn/i2/t/0419202408254613-2.jpg[/img]
[img]http://lookpic.com/cdn/i2/t/0419202408254613-3.jpg[/img]

General
Unique ID                                : 136829668107105798477802870920568417465 (0x66F06F7D81473FC7A8E94071120CACB9)
Complete name                            : Elsbeth S01E05 Ball Girl 1080p AMZN WEB-DL DDP5 1 H 264-NTb.mkv
Format                                   : Matroska
Format version                           : Version 4
File size                                : 2.29 GiB
Duration                                 : 42 min 53 s
Overall bit rate                         : 7 657 kb/s
Frame rate                               : 23.976 FPS
Writing application                      : mkvmerge v81.0 ('Milliontown') 64-bit
Writing library                          : libebml v1.4.4 + libmatroska v1.7.1

Video
ID                                       : 1
Format                                   : AVC
Format/Info                              : Advanced Video Codec
Format profile                           : High@L4
Format settings                          : CABAC / 4 Ref Frames
Format settings, CABAC                   : Yes
Format settings, Reference frames        : 4 frames
Codec ID                                 : V_MPEG4/ISO/AVC
Duration                                 : 42 min 53 s
Bit rate mode                            : Constant
Bit rate                                 : 7 015 kb/s
Nominal bit rate                         : 10 000 kb/s
Width                                    : 1 920 pixels
Height                                   : 1 080 pixels
Display aspect ratio                     : 16:9
Frame rate mode                          : Constant
Frame rate                               : 23.976 (24000/1001) FPS
Color space                              : YUV
Chroma subsampling                       : 4:2:0
Bit depth                                : 8 bits
Scan type                                : Progressive
Bits/(Pixel*Frame)                       : 0.141
Stream size                              : 2.10 GiB (92%)
Default                                  : Yes
Forced                                   : No
Color range                              : Limited
Color primaries                          : BT.709
Transfer characteristics                 : BT.709
Matrix coefficients                      : BT.709

Audio
ID                                       : 2
Format                                   : E-AC-3
Format/Info                              : Enhanced AC-3
Commercial name                          : Dolby Digital Plus
Codec ID                                 : A_EAC3
Duration                                 : 42 min 53 s
Bit rate mode                            : Constant
Bit rate                                 : 640 kb/s
Channel(s)                               : 6 channels
Channel layout                           : L R C LFE Ls Rs
Sampling rate                            : 48.0 kHz
Frame rate                               : 31.250 FPS (1536 SPF)
Compression mode                         : Lossy
Stream size                              : 196 MiB (8%)
Language                                 : English (US)
Service kind                             : Complete Main
Default                                  : Yes
Forced                                   : No

Text #1
ID                                       : 3
Format                                   : UTF-8
Codec ID                                 : S_TEXT/UTF8
Codec ID/Info                            : UTF-8 Plain Text
Duration                                 : 42 min 19 s
Bit rate                                 : 92 b/s
Frame rate                               : 0.376 FPS
Count of elements                        : 955
Stream size                              : 28.6 KiB (0%)
Language                                 : English (US)
Default                                  : No
Forced                                   : No

Text #2
ID                                       : 4
Format                                   : UTF-8
Codec ID                                 : S_TEXT/UTF8
Codec ID/Info                            : UTF-8 Plain Text
Duration                                 : 42 min 19 s
Bit rate                                 : 96 b/s
Frame rate                               : 0.394 FPS
Count of elements                        : 1001
Stream size                              : 29.8 KiB (0%)
Title                                    : SDH
Language                                 : English (US)
Default                                  : No
Forced                                   : No



Download
File Container: MKV
Video/Audio Codec: H264 (HIGH) EAC3
Video Resolution: 1920x1080

1 Response to "[RR/NF] Elsbeth S01E05 Ball Girl 1080p AMZN WEB-DL DDP5 1 H 264-NTb (2.3GB)"
04/19/24
10:53:23
ReadyPlayerOne

Thank You

Please Login to post a comment.
If you don't have any account, please Register.
  • Subscribe my Feeds
  • Facebook
Encoding Queue:  x264  x265

Latest Episodes

Popular Movies and TV Shows

  • Civil War
  • South Park: The End of Obesity
  • WWE Smackdown!
  • Atlas
  • Sister Boniface Mysteries
  • McDonald & Dodds
  • South Park
  • Abbott Elementary
  • Furiosa: A Mad Max Saga
  • Billy Corgan's Adventures in Carnyland
  • The Beach Boys
  • The Human Factor
  • Elsbeth
  • Star Trek: Discovery
  • The Rookie
  • The Fall Guy
  • American Star
  • Crew
  • 9-1-1
  • Grey's Anatomy
  • Station 19
  • The Blue Angels
  • Reunion
  • Where Eagles Dare
  • The Daily Show

Recent Comments

  • spiker1961:

    The audio on this is a commentary track, not the actual film audio.

  • spiker1961:

    The audio on this is a commentary track, not the film audio.

  • DuranDuran: The MS PAT show - - Does anyone have BOTH the MS PAT show (SEASON 4) & (SEASON 3) that just cam...
  • newuser:

    need english subtitles

  • Demonz:

    WTH is this

    NO season info and parts 1-13

  • meyat74:

    please add if possible new episodes 5-6

  • DuranDuran: THE MS PAT show = Does anyone have BOTH the MS PAT show (SEASON 3)-and- (SEASON 4) that just came ou...
  • big_ralphie: Just sitting down to watch and, yes there are subtitles...in ITALIAN ONLY. ENGLISH subs might be hel...
  • Geependo:

    All links are dead

  • OldMovies:

    Has Czech subtitles but not English. Need forced English for the foreign language parts.

  • PROFessorMorrynarty: Would it be possible to upload 'Lego masters Australia' Series 6 Episode 6 Please? It's the only one...
  • mentalityx:

    Thx mate.

Archives