Sign Up   |   Sign In  
Civil WarDoctor WhoWWE Smackdown!FBI: Most WantedAtlasSouth Park: The End of ObesitySouth ParkSister Boniface MysteriesMcDonald & DoddsThe Human FactorWWE NXTStar Trek: DiscoveryThe RookieFuriosa: A Mad Max SagaThe Fall GuyThe Beach BoysElsbethGrey's Anatomy9-1-1American StarCrewThe Blue AngelsThe Daily ShowChicago FireEvil

Announcements

04/19

2024

1

Comments

Elsbeth S01E05 Ball Girl 720p AMZN WEB-DL DDP5 1 H 264-FLUX
[RR/NF/CU]
Size: 1.1GB mkv H264 (HIGH) / EAC3  HD  1280x720

Elsbeth
File Information
[img]http://lookpic.com/cdn/i2/t/0419202407290947-1.jpg[/img]
[img]http://lookpic.com/cdn/i2/t/0419202407290947-2.jpg[/img]
[img]http://lookpic.com/cdn/i2/t/0419202407290947-3.jpg[/img]

General
Unique ID                                : 144257334162022952254000363366733367246 (0x6C86F3B363A0F36E11DFD12F0748C7CE)
Complete name                            : Elsbeth S01E05 Ball Girl 720p AMZN WEB-DL DDP5 1 H 264-FLUX.mkv
Format                                   : Matroska
Format version                           : Version 4
File size                                : 1.15 GiB
Duration                                 : 42 min 49 s
Overall bit rate                         : 3 828 kb/s
Frame rate                               : 23.976 FPS
Writing application                      : mkvmerge v83.0 ('Circle Of Friends') 64-bit
Writing library                          : libebml v1.4.5 + libmatroska v1.7.1

Video
ID                                       : 1
Format                                   : AVC
Format/Info                              : Advanced Video Codec
Format profile                           : High@L3.1
Format settings                          : CABAC / 4 Ref Frames
Format settings, CABAC                   : Yes
Format settings, Reference frames        : 4 frames
Codec ID                                 : V_MPEG4/ISO/AVC
Duration                                 : 42 min 49 s
Bit rate mode                            : Constant
Bit rate                                 : 3 186 kb/s
Nominal bit rate                         : 6 000 kb/s
Width                                    : 1 280 pixels
Height                                   : 720 pixels
Display aspect ratio                     : 16:9
Frame rate mode                          : Constant
Frame rate                               : 23.976 (24000/1001) FPS
Color space                              : YUV
Chroma subsampling                       : 4:2:0
Bit depth                                : 8 bits
Scan type                                : Progressive
Bits/(Pixel*Frame)                       : 0.144
Stream size                              : 976 MiB (83%)
Language                                 : English (US)
Default                                  : Yes
Forced                                   : No
Color range                              : Limited
Color primaries                          : BT.709
Transfer characteristics                 : BT.709
Matrix coefficients                      : BT.709

Audio
ID                                       : 2
Format                                   : E-AC-3
Format/Info                              : Enhanced AC-3
Commercial name                          : Dolby Digital Plus
Codec ID                                 : A_EAC3
Duration                                 : 42 min 49 s
Bit rate mode                            : Constant
Bit rate                                 : 640 kb/s
Channel(s)                               : 6 channels
Channel layout                           : L R C LFE Ls Rs
Sampling rate                            : 48.0 kHz
Frame rate                               : 31.250 FPS (1536 SPF)
Compression mode                         : Lossy
Stream size                              : 196 MiB (17%)
Language                                 : English
Service kind                             : Complete Main
Default                                  : Yes
Forced                                   : No

Text #1
ID                                       : 3
Format                                   : UTF-8
Codec ID                                 : S_TEXT/UTF8
Codec ID/Info                            : UTF-8 Plain Text
Duration                                 : 42 min 13 s
Bit rate                                 : 92 b/s
Frame rate                               : 0.377 FPS
Count of elements                        : 955
Stream size                              : 28.6 KiB (0%)
Language                                 : English (US)
Default                                  : No
Forced                                   : No

Text #2
ID                                       : 4
Format                                   : UTF-8
Codec ID                                 : S_TEXT/UTF8
Codec ID/Info                            : UTF-8 Plain Text
Duration                                 : 42 min 13 s
Bit rate                                 : 96 b/s
Frame rate                               : 0.395 FPS
Count of elements                        : 1001
Stream size                              : 29.8 KiB (0%)
Title                                    : SDH
Language                                 : English (US)
Default                                  : No
Forced                                   : No

Menu
00:00:00.000                             : en:Scene 1
00:42:44.000                             : en:Outro



Download
File Container: MKV
Video/Audio Codec: H264 (HIGH) EAC3
Video Resolution: 1280x720

1 Response to "[RR/NF/CU] Elsbeth S01E05 Ball Girl 720p AMZN WEB-DL DDP5 1 H 264-FLUX (1.1GB)"
04/19/24
09:36:52
ReadyPlayerOne

Thank You

Please Login to post a comment.
If you don't have any account, please Register.
  • Subscribe my Feeds
  • Facebook
Encoding Queue:  x264  x265

Latest Episodes

Popular Movies and TV Shows

  • Civil War
  • Doctor Who
  • WWE Smackdown!
  • FBI: Most Wanted
  • Atlas
  • South Park: The End of Obesity
  • South Park
  • Sister Boniface Mysteries
  • McDonald & Dodds
  • The Human Factor
  • WWE NXT
  • Star Trek: Discovery
  • The Rookie
  • Furiosa: A Mad Max Saga
  • The Fall Guy
  • The Beach Boys
  • Elsbeth
  • Grey's Anatomy
  • 9-1-1
  • American Star
  • Crew
  • The Blue Angels
  • The Daily Show
  • Chicago Fire
  • Evil

Recent Comments

  • spiker1961:

    The audio on this is a commentary track, not the actual film audio.

  • spiker1961:

    The audio on this is a commentary track, not the film audio.

  • DuranDuran: The MS PAT show - - Does anyone have BOTH the MS PAT show (SEASON 4) & (SEASON 3) that just cam...
  • newuser:

    need english subtitles

  • Demonz:

    WTH is this

    NO season info and parts 1-13

  • meyat74:

    please add if possible new episodes 5-6

  • DuranDuran: THE MS PAT show = Does anyone have BOTH the MS PAT show (SEASON 3)-and- (SEASON 4) that just came ou...
  • big_ralphie: Just sitting down to watch and, yes there are subtitles...in ITALIAN ONLY. ENGLISH subs might be hel...
  • Geependo:

    All links are dead

  • OldMovies:

    Has Czech subtitles but not English. Need forced English for the foreign language parts.

  • PROFessorMorrynarty: Would it be possible to upload 'Lego masters Australia' Series 6 Episode 6 Please? It's the only one...
  • mentalityx:

    Thx mate.

Archives