Sign Up   |   Sign In  
Furiosa: A Mad Max SagaAutoeroticUnder the BridgeThe Feeling That the Time for Doing Something Has PassedWWE NXTHold the Front PageMasterChef AustraliaFire CountryKonosuba: God's Blessing on This Wonderful World!May DecemberOur LoversNevada SmithDark MatterWWE RawThe Big Door PrizeYour Mother's SonMahal ko ang mahal moSerbidorasThe Bold and the BeautifulThe SimpsonsLootThe First OmenTarotCivil WarThe Daily Show

Announcements

04/19

2024

1

Comments

Elsbeth S01E05 Ball Girl 720p AMZN WEB-DL DDP5 1 H 264-NTb
[RR/NF/CU]
Size: 1.1GB mkv H264 (HIGH) / EAC3  HD  1280x720

Elsbeth
File Information
[img]http://lookpic.com/cdn/i2/t/0419202408255075-1.jpg[/img]
[img]http://lookpic.com/cdn/i2/t/0419202408255075-2.jpg[/img]
[img]http://lookpic.com/cdn/i2/t/0419202408255075-3.jpg[/img]

General
Unique ID                                : 292390023856921343181548053185242546757 (0xDBF8452E5B9A9277A233A2B23B7B4245)
Complete name                            : Elsbeth S01E05 Ball Girl 720p AMZN WEB-DL DDP5 1 H 264-NTb.mkv
Format                                   : Matroska
Format version                           : Version 4
File size                                : 1.09 GiB
Duration                                 : 42 min 53 s
Overall bit rate                         : 3 646 kb/s
Frame rate                               : 23.976 FPS
Writing application                      : mkvmerge v81.0 ('Milliontown') 64-bit
Writing library                          : libebml v1.4.4 + libmatroska v1.7.1

Video
ID                                       : 1
Format                                   : AVC
Format/Info                              : Advanced Video Codec
Format profile                           : High@L3.1
Format settings                          : CABAC / 4 Ref Frames
Format settings, CABAC                   : Yes
Format settings, Reference frames        : 4 frames
Codec ID                                 : V_MPEG4/ISO/AVC
Duration                                 : 42 min 53 s
Bit rate mode                            : Constant
Bit rate                                 : 3 003 kb/s
Nominal bit rate                         : 4 000 kb/s
Width                                    : 1 280 pixels
Height                                   : 720 pixels
Display aspect ratio                     : 16:9
Frame rate mode                          : Constant
Frame rate                               : 23.976 (24000/1001) FPS
Color space                              : YUV
Chroma subsampling                       : 4:2:0
Bit depth                                : 8 bits
Scan type                                : Progressive
Bits/(Pixel*Frame)                       : 0.136
Stream size                              : 921 MiB (82%)
Default                                  : Yes
Forced                                   : No
Color range                              : Limited
Color primaries                          : BT.709
Transfer characteristics                 : BT.709
Matrix coefficients                      : BT.709

Audio
ID                                       : 2
Format                                   : E-AC-3
Format/Info                              : Enhanced AC-3
Commercial name                          : Dolby Digital Plus
Codec ID                                 : A_EAC3
Duration                                 : 42 min 53 s
Bit rate mode                            : Constant
Bit rate                                 : 640 kb/s
Channel(s)                               : 6 channels
Channel layout                           : L R C LFE Ls Rs
Sampling rate                            : 48.0 kHz
Frame rate                               : 31.250 FPS (1536 SPF)
Compression mode                         : Lossy
Stream size                              : 196 MiB (18%)
Language                                 : English (US)
Service kind                             : Complete Main
Default                                  : Yes
Forced                                   : No

Text #1
ID                                       : 3
Format                                   : UTF-8
Codec ID                                 : S_TEXT/UTF8
Codec ID/Info                            : UTF-8 Plain Text
Duration                                 : 42 min 19 s
Bit rate                                 : 92 b/s
Frame rate                               : 0.376 FPS
Count of elements                        : 955
Stream size                              : 28.6 KiB (0%)
Language                                 : English (US)
Default                                  : No
Forced                                   : No

Text #2
ID                                       : 4
Format                                   : UTF-8
Codec ID                                 : S_TEXT/UTF8
Codec ID/Info                            : UTF-8 Plain Text
Duration                                 : 42 min 19 s
Bit rate                                 : 96 b/s
Frame rate                               : 0.394 FPS
Count of elements                        : 1001
Stream size                              : 29.8 KiB (0%)
Title                                    : SDH
Language                                 : English (US)
Default                                  : No
Forced                                   : No



Download
File Container: MKV
Video/Audio Codec: H264 (HIGH) EAC3
Video Resolution: 1280x720

1 Response to "[RR/NF/CU] Elsbeth S01E05 Ball Girl 720p AMZN WEB-DL DDP5 1 H 264-NTb (1.1GB)"
04/19/24
10:09:24
ReadyPlayerOne

Thank You

Please Login to post a comment.
If you don't have any account, please Register.
  • Subscribe my Feeds
  • Facebook
Encoding Queue:  x264  x265

Latest Episodes

Popular Movies and TV Shows

  • Furiosa: A Mad Max Saga
  • Autoerotic
  • Under the Bridge
  • The Feeling That the Time for Doing Something Has Passed
  • WWE NXT
  • Hold the Front Page
  • MasterChef Australia
  • Fire Country
  • Konosuba: God's Blessing on This Wonderful World!
  • May December
  • Our Lovers
  • Nevada Smith
  • Dark Matter
  • WWE Raw
  • The Big Door Prize
  • Your Mother's Son
  • Mahal ko ang mahal mo
  • Serbidoras
  • The Bold and the Beautiful
  • The Simpsons
  • Loot
  • The First Omen
  • Tarot
  • Civil War
  • The Daily Show

Recent Comments

  • spiderspinner: Bud:The same thing started happening to me last night and I've used four different browsers yet they...
  • timt:

    Junk, CAM

  • upx:

    WARNING:This is NOT a BluRay rip. It's a CAMrip.

  • Bud: Is clicknupload borked for anyone else now, or is it just me? In recent months it's only worked in...
  • mentalityx:

    Rad bloke!

  • waanaabe: I hope someone follows through with the rest! also, did not check every post but hoping future ones ...
  • Demonz:

    Holy popups ClickNupload

  • rambaldi70:

    this release sort cut! 1h33m12 !
    imdb - 1h 54m

  • rambaldi70: This release the first bad source 1h33m12 - stop the play this release sort cut! 1h33m12 ! imdb - 1h...
  • rambaldi70:

    this release sort cut! 1h33m12 !
    imdb - 1h 54m

  • dilliboy: Will we ever see these RMTeam releases ever again? I hope they're not lost to the digital graveyard ...
  • kang:

    NitroFlare's link is missing...

  • kang:

    NitroFlare's link is missing...

  • tchamast:

    @Wrapt

    I've seen that too, don't know why.

  • Rafi85: Hi thx for the 14th season. Is it possible to reupload some episodes plz they were removed. These ar...
  • KubrickFan:

    Any possibility of a fresh link for this?

  • GubeShitemon: This is a different movie to the artwork version. Not the Dylan McDermott film but the Ben Affleck f...
  • drorsabi1:

    @admin
    Please add "My Adventures With Superman Season 2 "

  • Wrapt: Hahahaha yeah right make a liar out of me but I was referring to comments made about a movie or an e...
  • Wrapt: Comments are not always appearing in the Recent Comments list after submitting a comment any reason ...

Archives