Sign Up   |   Sign In  
House of the DragonNCISPhysicalReturn to Never LandRide Along 2Right on TrackMayor of KingstownMy Adventures with Superman60 MinutesTwo Way StretchZenon: The ZequelCats in the MuseumWalkerHotel CocaineInterview with the VampireCalamity JaneOctopussyJack Whitehall: Settle DownWWE NXTThe Loud HouseYoung SheldonDaaaaaali!Kung Fu HustleLicence to KillThe Daily Show

Announcements

05/17

2024

1

Comments

Elsbeth S01E09 Sweet Justice 720p AMZN WEB-DL DDP5 1 H 264-NTb
[RR/NF]
Size: 950MB mkv H264 (HIGH) / EAC3  HD  1280x720

Elsbeth
File Information
[img]http://lookpic.com/cdn/i2/t/0517202408161682-1.jpg[/img]
[img]http://lookpic.com/cdn/i2/t/0517202408161682-2.jpg[/img]
[img]http://lookpic.com/cdn/i2/t/0517202408161682-3.jpg[/img]

General
Unique ID                                : 186510554163195544507709286238439336852 (0x8C50A049727CBC8A91EA8A9CE04BEB94)
Complete name                            : Elsbeth.S01E09.Sweet.Justice.720p.AMZN.WEB-DL.DDP5.1.H.264-NTb.mkv
Format                                   : Matroska
Format version                           : Version 4
File size                                : 951 MiB
Duration                                 : 43 min 9 s
Overall bit rate                         : 3 079 kb/s
Frame rate                               : 23.976 FPS
Writing application                      : mkvmerge v84.0 ('Sleeper') 64-bit
Writing library                          : libebml v1.4.5 + libmatroska v1.7.1

Video
ID                                       : 1
Format                                   : AVC
Format/Info                              : Advanced Video Codec
Format profile                           : High@L3.1
Format settings                          : CABAC / 4 Ref Frames
Format settings, CABAC                   : Yes
Format settings, Reference frames        : 4 frames
Codec ID                                 : V_MPEG4/ISO/AVC
Duration                                 : 43 min 9 s
Bit rate mode                            : Constant
Bit rate                                 : 2 437 kb/s
Nominal bit rate                         : 6 000 kb/s
Width                                    : 1 280 pixels
Height                                   : 720 pixels
Display aspect ratio                     : 16:9
Frame rate mode                          : Constant
Frame rate                               : 23.976 (24000/1001) FPS
Color space                              : YUV
Chroma subsampling                       : 4:2:0
Bit depth                                : 8 bits
Scan type                                : Progressive
Bits/(Pixel*Frame)                       : 0.110
Stream size                              : 752 MiB (79%)
Default                                  : Yes
Forced                                   : No
Color range                              : Limited
Color primaries                          : BT.709
Transfer characteristics                 : BT.709
Matrix coefficients                      : BT.709

Audio
ID                                       : 2
Format                                   : E-AC-3
Format/Info                              : Enhanced AC-3
Commercial name                          : Dolby Digital Plus
Codec ID                                 : A_EAC3
Duration                                 : 43 min 9 s
Bit rate mode                            : Constant
Bit rate                                 : 640 kb/s
Channel(s)                               : 6 channels
Channel layout                           : L R C LFE Ls Rs
Sampling rate                            : 48.0 kHz
Frame rate                               : 31.250 FPS (1536 SPF)
Compression mode                         : Lossy
Stream size                              : 198 MiB (21%)
Language                                 : English (US)
Service kind                             : Complete Main
Default                                  : Yes
Forced                                   : No

Text #1
ID                                       : 3
Format                                   : UTF-8
Codec ID                                 : S_TEXT/UTF8
Codec ID/Info                            : UTF-8 Plain Text
Duration                                 : 42 min 51 s
Bit rate                                 : 91 b/s
Frame rate                               : 0.398 FPS
Count of elements                        : 1024
Stream size                              : 28.8 KiB (0%)
Language                                 : English (US)
Default                                  : No
Forced                                   : No

Text #2
ID                                       : 4
Format                                   : UTF-8
Codec ID                                 : S_TEXT/UTF8
Codec ID/Info                            : UTF-8 Plain Text
Duration                                 : 42 min 51 s
Bit rate                                 : 95 b/s
Frame rate                               : 0.413 FPS
Count of elements                        : 1063
Stream size                              : 30.0 KiB (0%)
Title                                    : SDH
Language                                 : English (US)
Default                                  : No
Forced                                   : No



Download
File Container: MKV
Video/Audio Codec: H264 (HIGH) EAC3
Video Resolution: 1280x720

1 Response to "[RR/NF] Elsbeth S01E09 Sweet Justice 720p AMZN WEB-DL DDP5 1 H 264-NTb (950MB)"
05/17/24
09:13:27
ReadyPlayerOne

Thank You

Please Login to post a comment.
If you don't have any account, please Register.
  • Subscribe my Feeds
  • Facebook
Encoding Queue:  x264  x265

Latest Episodes

Popular Movies and TV Shows

  • House of the Dragon
  • NCIS
  • Physical
  • Return to Never Land
  • Ride Along 2
  • Right on Track
  • Mayor of Kingstown
  • My Adventures with Superman
  • 60 Minutes
  • Two Way Stretch
  • Zenon: The Zequel
  • Cats in the Museum
  • Walker
  • Hotel Cocaine
  • Interview with the Vampire
  • Calamity Jane
  • Octopussy
  • Jack Whitehall: Settle Down
  • WWE NXT
  • The Loud House
  • Young Sheldon
  • Daaaaaali!
  • Kung Fu Hustle
  • Licence to Kill
  • The Daily Show

Recent Comments

Archives