Sign Up   |   Sign In  
Mayor of KingstownMy Adventures with SupermanThe Body StealersCosta!!I'll Be FrankCalamity JaneInterview with the VampireHotel CocaineChristmas Is CanceledDaaaaaali!WalkerSatan's ChildrenLadies in BlackBilly the KidOctopussyThe 11th HourKung Fu HustleLicence to KillWWE NXTThe Loud HouseThe Bold and the BeautifulLook to the LightThere's Something About MaryInside Out 2The Daily Show

Announcements

05/23

2024

No

Comments

Evil S04E01 How to Split an Atom 720p AMZN WEB-DL DDP5 1 H 264-NTb
[RR/NF/CU]
Size: 1.1GB mkv H264 (HIGH) / EAC3  HD  1280x720

Evil
File Information
[img]http://lookpic.com/cdn/i2/t/0523202417175701-1.jpg[/img]
[img]http://lookpic.com/cdn/i2/t/0523202417175701-2.jpg[/img]
[img]http://lookpic.com/cdn/i2/t/0523202417175701-3.jpg[/img]

General
Unique ID                                : 182206285423746775481748490491245143065 (0x8913A77419F2A7CBA0D3CC0513B0A419)
Complete name                            : Evil S04E01 How to Split an Atom 720p AMZN WEB-DL DDP5 1 H 264-NTb.mkv
Format                                   : Matroska
Format version                           : Version 4
File size                                : 1.10 GiB
Duration                                 : 56 min 14 s
Overall bit rate                         : 2 795 kb/s
Frame rate                               : 23.976 FPS
Writing application                      : mkvmerge v84.0 ('Sleeper') 64-bit
Writing library                          : libebml v1.4.5 + libmatroska v1.7.1

Video
ID                                       : 1
Format                                   : AVC
Format/Info                              : Advanced Video Codec
Format profile                           : High@L3.1
Format settings                          : CABAC / 4 Ref Frames
Format settings, CABAC                   : Yes
Format settings, Reference frames        : 4 frames
Codec ID                                 : V_MPEG4/ISO/AVC
Duration                                 : 56 min 14 s
Bit rate mode                            : Constant
Bit rate                                 : 2 153 kb/s
Nominal bit rate                         : 4 000 kb/s
Width                                    : 1 280 pixels
Height                                   : 720 pixels
Display aspect ratio                     : 16:9
Frame rate mode                          : Constant
Frame rate                               : 23.976 (24000/1001) FPS
Color space                              : YUV
Chroma subsampling                       : 4:2:0
Bit depth                                : 8 bits
Scan type                                : Progressive
Bits/(Pixel*Frame)                       : 0.097
Stream size                              : 866 MiB (77%)
Default                                  : Yes
Forced                                   : No
Color range                              : Limited
Color primaries                          : BT.709
Transfer characteristics                 : BT.709
Matrix coefficients                      : BT.709

Audio
ID                                       : 2
Format                                   : E-AC-3
Format/Info                              : Enhanced AC-3
Commercial name                          : Dolby Digital Plus
Codec ID                                 : A_EAC3
Duration                                 : 56 min 14 s
Bit rate mode                            : Constant
Bit rate                                 : 640 kb/s
Channel(s)                               : 6 channels
Channel layout                           : L R C LFE Ls Rs
Sampling rate                            : 48.0 kHz
Frame rate                               : 31.250 FPS (1536 SPF)
Compression mode                         : Lossy
Stream size                              : 257 MiB (23%)
Language                                 : English (US)
Service kind                             : Complete Main
Default                                  : Yes
Forced                                   : No

Text #1
ID                                       : 3
Format                                   : UTF-8
Codec ID                                 : S_TEXT/UTF8
Codec ID/Info                            : UTF-8 Plain Text
Duration                                 : 55 min 6 s
Bit rate                                 : 58 b/s
Frame rate                               : 0.272 FPS
Count of elements                        : 899
Stream size                              : 23.7 KiB (0%)
Language                                 : English (US)
Default                                  : No
Forced                                   : No

Text #2
ID                                       : 4
Format                                   : UTF-8
Codec ID                                 : S_TEXT/UTF8
Codec ID/Info                            : UTF-8 Plain Text
Duration                                 : 55 min 6 s
Bit rate                                 : 63 b/s
Frame rate                               : 0.303 FPS
Count of elements                        : 1002
Stream size                              : 25.7 KiB (0%)
Title                                    : SDH
Language                                 : English (US)
Default                                  : No
Forced                                   : No



Download
File Container: MKV
Video/Audio Codec: H264 (HIGH) EAC3
Video Resolution: 1280x720
Please Login to post a comment.
If you don't have any account, please Register.
  • Subscribe my Feeds
  • Facebook
Encoding Queue:  x264  x265

Latest Episodes

Popular Movies and TV Shows

  • Mayor of Kingstown
  • My Adventures with Superman
  • The Body Stealers
  • Costa!!
  • I'll Be Frank
  • Calamity Jane
  • Interview with the Vampire
  • Hotel Cocaine
  • Christmas Is Canceled
  • Daaaaaali!
  • Walker
  • Satan's Children
  • Ladies in Black
  • Billy the Kid
  • Octopussy
  • The 11th Hour
  • Kung Fu Hustle
  • Licence to Kill
  • WWE NXT
  • The Loud House
  • The Bold and the Beautiful
  • Look to the Light
  • There's Something About Mary
  • Inside Out 2
  • The Daily Show

Recent Comments

Archives