Sign Up   |   Sign In  
Mayor of KingstownBilly the Kid90 Day Fiancé: Happily Ever After?R.I.P.D.Raya and the Last DragonRatatouilleLove IslandLicence to KillLook to the LightKung Fu HustleDoctor ClimaxTeen Mom: The Next ChapterThe Bold and the BeautifulThe Loud HouseWelcome to WrexhamThere's Something About MaryVice News Presents: Mass Shooting AmericaHit ManWWE NXTCatfish: The TV ShowWalkerEnter the Clones of BruceImmaculateInside Out 2The Daily Show

Announcements

05/30

2024

No

Comments

Evil S04E02 How To Train A Dog 720p AMZN WEB-DL DDP5 1 H 264-FLUX
[RR/NF/CU]
Size: 1GB mkv H264 (HIGH) / EAC3  HD  1280x720

Evil
File Information
[img]http://lookpic.com/cdn/i2/t/0530202408405312-1.jpg[/img]
[img]http://lookpic.com/cdn/i2/t/0530202408405312-2.jpg[/img]
[img]http://lookpic.com/cdn/i2/t/0530202408405312-3.jpg[/img]

General
Unique ID                                : 60164279872973699282388790777328507162 (0x2D43380485622DBB66D8976B1EA5191A)
Complete name                            : Evil S04E02 How To Train A Dog 720p AMZN WEB-DL DDP5 1 H 264-FLUX.mkv
Format                                   : Matroska
Format version                           : Version 4
File size                                : 1.00 GiB
Duration                                 : 55 min 26 s
Overall bit rate                         : 2 595 kb/s
Frame rate                               : 23.976 FPS
Writing application                      : mkvmerge v79.0 ('Funeral Pyres') 64-bit
Writing library                          : libebml v1.4.4 + libmatroska v1.7.1

Video
ID                                       : 1
Format                                   : AVC
Format/Info                              : Advanced Video Codec
Format profile                           : High@L3.1
Format settings                          : CABAC / 4 Ref Frames
Format settings, CABAC                   : Yes
Format settings, Reference frames        : 4 frames
Codec ID                                 : V_MPEG4/ISO/AVC
Duration                                 : 55 min 26 s
Bit rate mode                            : Constant
Bit rate                                 : 1 953 kb/s
Nominal bit rate                         : 4 000 kb/s
Width                                    : 1 280 pixels
Height                                   : 720 pixels
Display aspect ratio                     : 16:9
Frame rate mode                          : Constant
Frame rate                               : 23.976 (24000/1001) FPS
Color space                              : YUV
Chroma subsampling                       : 4:2:0
Bit depth                                : 8 bits
Scan type                                : Progressive
Bits/(Pixel*Frame)                       : 0.088
Stream size                              : 774 MiB (75%)
Language                                 : English (US)
Default                                  : Yes
Forced                                   : No
Color range                              : Limited
Color primaries                          : BT.709
Transfer characteristics                 : BT.709
Matrix coefficients                      : BT.709

Audio
ID                                       : 2
Format                                   : E-AC-3
Format/Info                              : Enhanced AC-3
Commercial name                          : Dolby Digital Plus
Codec ID                                 : A_EAC3
Duration                                 : 55 min 26 s
Bit rate mode                            : Constant
Bit rate                                 : 640 kb/s
Channel(s)                               : 6 channels
Channel layout                           : L R C LFE Ls Rs
Sampling rate                            : 48.0 kHz
Frame rate                               : 31.250 FPS (1536 SPF)
Compression mode                         : Lossy
Stream size                              : 254 MiB (25%)
Language                                 : English (US)
Service kind                             : Complete Main
Default                                  : Yes
Forced                                   : No

Text #1
ID                                       : 3
Format                                   : UTF-8
Codec ID                                 : S_TEXT/UTF8
Codec ID/Info                            : UTF-8 Plain Text
Duration                                 : 54 min 3 s
Bit rate                                 : 65 b/s
Frame rate                               : 0.283 FPS
Count of elements                        : 918
Stream size                              : 26.0 KiB (0%)
Language                                 : English (US)
Default                                  : No
Forced                                   : No

Text #2
ID                                       : 4
Format                                   : UTF-8
Codec ID                                 : S_TEXT/UTF8
Codec ID/Info                            : UTF-8 Plain Text
Duration                                 : 54 min 28 s
Bit rate                                 : 74 b/s
Frame rate                               : 0.329 FPS
Count of elements                        : 1074
Stream size                              : 29.8 KiB (0%)
Title                                    : SDH
Language                                 : English (US)
Default                                  : No
Forced                                   : No

Menu
00:00:00.000                             : en:Scene 1
00:54:34.000                             : en:End Credits



Download
File Container: MKV
Video/Audio Codec: H264 (HIGH) EAC3
Video Resolution: 1280x720
Please Login to post a comment.
If you don't have any account, please Register.
  • Subscribe my Feeds
  • Facebook
Encoding Queue:  x264  x265

Latest Episodes

Popular Movies and TV Shows

  • Mayor of Kingstown
  • Billy the Kid
  • 90 Day Fiancé: Happily Ever After?
  • R.I.P.D.
  • Raya and the Last Dragon
  • Ratatouille
  • Love Island
  • Licence to Kill
  • Look to the Light
  • Kung Fu Hustle
  • Doctor Climax
  • Teen Mom: The Next Chapter
  • The Bold and the Beautiful
  • The Loud House
  • Welcome to Wrexham
  • There's Something About Mary
  • Vice News Presents: Mass Shooting America
  • Hit Man
  • WWE NXT
  • Catfish: The TV Show
  • Walker
  • Enter the Clones of Bruce
  • Immaculate
  • Inside Out 2
  • The Daily Show

Recent Comments

Archives