Sign Up   |   Sign In  
S.W.A.T.Blue BloodsMaid DroidFire CountryMegamind vs. The Doom SyndicateThe Fault in Our StarsWolf Like MeThe RookieDunePenn & Teller: Fool UsThe Late GameTiger Nageswara RaoSpacemanYoung SheldonMalpracticeReal Time with Bill MaherThe SeedingFirefoxMasters of the AirHaloLolaGhostsDune: Part TwoNorthern ComfortResident Alien

Announcements

02/09

2024

1

Comments

Expats S01E04 Mainland 1080p AMZN WEB-DL DDP5 1 H 264-CMRG
[RR/NF]
Size: 4.1GB mkv H264 (HIGH) / EAC3  HD  1920x1040

Expats
File Information
[img]http://lookpic.com/cdn/i2/t/0209202407320596-1.jpg[/img]
[img]http://lookpic.com/cdn/i2/t/0209202407320596-2.jpg[/img]
[img]http://lookpic.com/cdn/i2/t/0209202407320596-3.jpg[/img]

General
Unique ID                                : 313701221017642732665876841529663834700 (0xEC00A852E5066F6DB2E63D548A304A4C)
Complete name                            : Expats.S01E04.Mainland.1080p.AMZN.WEB-DL.DDP5.1.H.264-CMRG.mkv
Format                                   : Matroska
Format version                           : Version 4
File size                                : 4.13 GiB
Duration                                 : 1 h 1 min
Overall bit rate                         : 9 660 kb/s
Frame rate                               : 23.976 FPS
Writing application                      : mkvmerge v76.0 ('Celebration') 64-bit
Writing library                          : libebml v1.4.4 + libmatroska v1.7.1

Video
ID                                       : 1
Format                                   : AVC
Format/Info                              : Advanced Video Codec
Format profile                           : High@L4
Format settings                          : CABAC / 4 Ref Frames
Format settings, CABAC                   : Yes
Format settings, Reference frames        : 4 frames
Codec ID                                 : V_MPEG4/ISO/AVC
Duration                                 : 1 h 1 min
Bit rate mode                            : Constant
Bit rate                                 : 9 013 kb/s
Nominal bit rate                         : 10 000 kb/s
Width                                    : 1 920 pixels
Height                                   : 1 040 pixels
Display aspect ratio                     : 1.85:1
Frame rate mode                          : Constant
Frame rate                               : 23.976 (24000/1001) FPS
Color space                              : YUV
Chroma subsampling                       : 4:2:0
Bit depth                                : 8 bits
Scan type                                : Progressive
Bits/(Pixel*Frame)                       : 0.188
Stream size                              : 3.86 GiB (93%)
Language                                 : English
Default                                  : Yes
Forced                                   : No
Color range                              : Limited
Color primaries                          : BT.709
Transfer characteristics                 : BT.709
Matrix coefficients                      : BT.709

Audio
ID                                       : 2
Format                                   : E-AC-3
Format/Info                              : Enhanced AC-3
Commercial name                          : Dolby Digital Plus
Codec ID                                 : A_EAC3
Duration                                 : 1 h 1 min
Bit rate mode                            : Constant
Bit rate                                 : 640 kb/s
Channel(s)                               : 6 channels
Channel layout                           : L R C LFE Ls Rs
Sampling rate                            : 48.0 kHz
Frame rate                               : 31.250 FPS (1536 SPF)
Compression mode                         : Lossy
Stream size                              : 280 MiB (7%)
Language                                 : English
Service kind                             : Complete Main
Default                                  : Yes
Forced                                   : No

Text #1
ID                                       : 3
Format                                   : UTF-8
Codec ID                                 : S_TEXT/UTF8
Codec ID/Info                            : UTF-8 Plain Text
Duration                                 : 44 min 33 s
Bit rate                                 : 3 b/s
Frame rate                               : 0.017 FPS
Count of elements                        : 45
Stream size                              : 1.01 KiB (0%)
Title                                    : Forced
Language                                 : English
Default                                  : Yes
Forced                                   : Yes

Text #2
ID                                       : 4
Format                                   : UTF-8
Codec ID                                 : S_TEXT/UTF8
Codec ID/Info                            : UTF-8 Plain Text
Duration                                 : 57 min 59 s
Bit rate                                 : 68 b/s
Frame rate                               : 0.261 FPS
Count of elements                        : 909
Stream size                              : 29.3 KiB (0%)
Title                                    : SDH
Language                                 : English
Default                                  : No
Forced                                   : No

Text #3
ID                                       : 5
Format                                   : UTF-8
Codec ID                                 : S_TEXT/UTF8
Codec ID/Info                            : UTF-8 Plain Text
Duration                                 : 57 min 16 s
Bit rate                                 : 59 b/s
Frame rate                               : 0.225 FPS
Count of elements                        : 773
Stream size                              : 24.9 KiB (0%)
Language                                 : English
Default                                  : No
Forced                                   : No

Text #4
ID                                       : 6
Format                                   : UTF-8
Codec ID                                 : S_TEXT/UTF8
Codec ID/Info                            : UTF-8 Plain Text
Duration                                 : 57 min 39 s
Bit rate                                 : 100 b/s
Frame rate                               : 0.218 FPS
Count of elements                        : 754
Stream size                              : 42.5 KiB (0%)
Language                                 : Arabic
Default                                  : No
Forced                                   : No

Text #5
ID                                       : 7
Format                                   : UTF-8
Codec ID                                 : S_TEXT/UTF8
Codec ID/Info                            : UTF-8 Plain Text
Duration                                 : 57 min 39 s
Bit rate                                 : 45 b/s
Frame rate                               : 0.213 FPS
Count of elements                        : 737
Stream size                              : 19.4 KiB (0%)
Title                                    : European
Language                                 : Catalan
Default                                  : No
Forced                                   : No

Text #6
ID                                       : 8
Format                                   : UTF-8
Codec ID                                 : S_TEXT/UTF8
Codec ID/Info                            : UTF-8 Plain Text
Duration                                 : 57 min 39 s
Bit rate                                 : 51 b/s
Frame rate                               : 0.218 FPS
Count of elements                        : 754
Stream size                              : 21.9 KiB (0%)
Language                                 : Czech
Default                                  : No
Forced                                   : No

Text #7
ID                                       : 9
Format                                   : UTF-8
Codec ID                                 : S_TEXT/UTF8
Codec ID/Info                            : UTF-8 Plain Text
Duration                                 : 57 min 39 s
Bit rate                                 : 51 b/s
Frame rate                               : 0.218 FPS
Count of elements                        : 754
Stream size                              : 21.9 KiB (0%)
Language                                 : Danish
Default                                  : No
Forced                                   : No

Text #8
ID                                       : 10
Format                                   : UTF-8
Codec ID                                 : S_TEXT/UTF8
Codec ID/Info                            : UTF-8 Plain Text
Duration                                 : 57 min 39 s
Bit rate                                 : 50 b/s
Frame rate                               : 0.215 FPS
Count of elements                        : 744
Stream size                              : 21.5 KiB (0%)
Language                                 : German
Default                                  : No
Forced                                   : No

Text #9
ID                                       : 11
Format                                   : UTF-8
Codec ID                                 : S_TEXT/UTF8
Codec ID/Info                            : UTF-8 Plain Text
Duration                                 : 57 min 39 s
Bit rate                                 : 91 b/s
Frame rate                               : 0.216 FPS
Count of elements                        : 746
Stream size                              : 38.5 KiB (0%)
Language                                 : Greek
Default                                  : No
Forced                                   : No

Text #10
ID                                       : 12
Format                                   : UTF-8
Codec ID                                 : S_TEXT/UTF8
Codec ID/Info                            : UTF-8 Plain Text
Duration                                 : 57 min 39 s
Bit rate                                 : 50 b/s
Frame rate                               : 0.218 FPS
Count of elements                        : 754
Stream size                              : 21.4 KiB (0%)
Language                                 : Spanish
Default                                  : No
Forced                                   : No

Text #11
ID                                       : 13
Format                                   : UTF-8
Codec ID                                 : S_TEXT/UTF8
Codec ID/Info                            : UTF-8 Plain Text
Duration                                 : 57 min 39 s
Bit rate                                 : 48 b/s
Frame rate                               : 0.218 FPS
Count of elements                        : 754
Stream size                              : 20.5 KiB (0%)
Title                                    : Latin American
Language                                 : Spanish
Default                                  : No
Forced                                   : No

Text #12
ID                                       : 14
Format                                   : UTF-8
Codec ID                                 : S_TEXT/UTF8
Codec ID/Info                            : UTF-8 Plain Text
Duration                                 : 57 min 39 s
Bit rate                                 : 47 b/s
Frame rate                               : 0.218 FPS
Count of elements                        : 754
Stream size                              : 20.1 KiB (0%)
Title                                    : European
Language                                 : Basque
Default                                  : No
Forced                                   : No

Text #13
ID                                       : 15
Format                                   : UTF-8
Codec ID                                 : S_TEXT/UTF8
Codec ID/Info                            : UTF-8 Plain Text
Duration                                 : 57 min 39 s
Bit rate                                 : 48 b/s
Frame rate                               : 0.216 FPS
Count of elements                        : 747
Stream size                              : 20.6 KiB (0%)
Language                                 : Finnish
Default                                  : No
Forced                                   : No

Text #14
ID                                       : 16
Format                                   : UTF-8
Codec ID                                 : S_TEXT/UTF8
Codec ID/Info                            : UTF-8 Plain Text
Duration                                 : 57 min 25 s
Bit rate                                 : 56 b/s
Frame rate                               : 0.218 FPS
Count of elements                        : 752
Stream size                              : 23.9 KiB (0%)
Language                                 : Filipino
Default                                  : No
Forced                                   : No

Text #15
ID                                       : 17
Format                                   : UTF-8
Codec ID                                 : S_TEXT/UTF8
Codec ID/Info                            : UTF-8 Plain Text
Duration                                 : 57 min 39 s
Bit rate                                 : 49 b/s
Frame rate                               : 0.214 FPS
Count of elements                        : 742
Stream size                              : 20.8 KiB (0%)
Language                                 : French
Default                                  : No
Forced                                   : No

Text #16
ID                                       : 18
Format                                   : UTF-8
Codec ID                                 : S_TEXT/UTF8
Codec ID/Info                            : UTF-8 Plain Text
Duration                                 : 57 min 39 s
Bit rate                                 : 57 b/s
Frame rate                               : 0.218 FPS
Count of elements                        : 754
Stream size                              : 24.3 KiB (0%)
Title                                    : Canadian
Language                                 : French
Default                                  : No
Forced                                   : No

Text #17
ID                                       : 19
Format                                   : UTF-8
Codec ID                                 : S_TEXT/UTF8
Codec ID/Info                            : UTF-8 Plain Text
Duration                                 : 57 min 25 s
Bit rate                                 : 43 b/s
Frame rate                               : 0.219 FPS
Count of elements                        : 753
Stream size                              : 18.5 KiB (0%)
Title                                    : European
Language                                 : Galician
Default                                  : No
Forced                                   : No

Text #18
ID                                       : 20
Format                                   : UTF-8
Codec ID                                 : S_TEXT/UTF8
Codec ID/Info                            : UTF-8 Plain Text
Duration                                 : 57 min 39 s
Bit rate                                 : 89 b/s
Frame rate                               : 0.218 FPS
Count of elements                        : 754
Stream size                              : 38.0 KiB (0%)
Language                                 : Hebrew
Default                                  : No
Forced                                   : No

Text #19
ID                                       : 21
Format                                   : UTF-8
Codec ID                                 : S_TEXT/UTF8
Codec ID/Info                            : UTF-8 Plain Text
Duration                                 : 57 min 39 s
Bit rate                                 : 127 b/s
Frame rate                               : 0.218 FPS
Count of elements                        : 754
Stream size                              : 53.7 KiB (0%)
Language                                 : Hindi
Default                                  : No
Forced                                   : No

Text #20
ID                                       : 22
Format                                   : UTF-8
Codec ID                                 : S_TEXT/UTF8
Codec ID/Info                            : UTF-8 Plain Text
Duration                                 : 57 min 39 s
Bit rate                                 : 54 b/s
Frame rate                               : 0.218 FPS
Count of elements                        : 754
Stream size                              : 22.9 KiB (0%)
Language                                 : Hungarian
Default                                  : No
Forced                                   : No

Text #21
ID                                       : 23
Format                                   : UTF-8
Codec ID                                 : S_TEXT/UTF8
Codec ID/Info                            : UTF-8 Plain Text
Duration                                 : 57 min 39 s
Bit rate                                 : 49 b/s
Frame rate                               : 0.218 FPS
Count of elements                        : 754
Stream size                              : 20.9 KiB (0%)
Language                                 : Indonesian
Default                                  : No
Forced                                   : No

Text #22
ID                                       : 24
Format                                   : UTF-8
Codec ID                                 : S_TEXT/UTF8
Codec ID/Info                            : UTF-8 Plain Text
Duration                                 : 57 min 39 s
Bit rate                                 : 49 b/s
Frame rate                               : 0.215 FPS
Count of elements                        : 745
Stream size                              : 21.0 KiB (0%)
Language                                 : Italian
Default                                  : No
Forced                                   : No

Text #23
ID                                       : 25
Format                                   : UTF-8
Codec ID                                 : S_TEXT/UTF8
Codec ID/Info                            : UTF-8 Plain Text
Duration                                 : 57 min 39 s
Bit rate                                 : 44 b/s
Frame rate                               : 0.197 FPS
Count of elements                        : 682
Stream size                              : 18.8 KiB (0%)
Language                                 : Japanese
Default                                  : No
Forced                                   : No

Text #24
ID                                       : 26
Format                                   : UTF-8
Codec ID                                 : S_TEXT/UTF8
Codec ID/Info                            : UTF-8 Plain Text
Duration                                 : 57 min 39 s
Bit rate                                 : 147 b/s
Frame rate                               : 0.218 FPS
Count of elements                        : 754
Stream size                              : 62.1 KiB (0%)
Language                                 : Kannada
Default                                  : No
Forced                                   : No

Text #25
ID                                       : 27
Format                                   : UTF-8
Codec ID                                 : S_TEXT/UTF8
Codec ID/Info                            : UTF-8 Plain Text
Duration                                 : 57 min 39 s
Bit rate                                 : 58 b/s
Frame rate                               : 0.218 FPS
Count of elements                        : 753
Stream size                              : 24.8 KiB (0%)
Language                                 : Korean
Default                                  : No
Forced                                   : No

Text #26
ID                                       : 28
Format                                   : UTF-8
Codec ID                                 : S_TEXT/UTF8
Codec ID/Info                            : UTF-8 Plain Text
Duration                                 : 57 min 39 s
Bit rate                                 : 162 b/s
Frame rate                               : 0.217 FPS
Count of elements                        : 750
Stream size                              : 68.6 KiB (0%)
Language                                 : Malayalam
Default                                  : No
Forced                                   : No

Text #27
ID                                       : 29
Format                                   : UTF-8
Codec ID                                 : S_TEXT/UTF8
Codec ID/Info                            : UTF-8 Plain Text
Duration                                 : 57 min 39 s
Bit rate                                 : 49 b/s
Frame rate                               : 0.218 FPS
Count of elements                        : 753
Stream size                              : 20.8 KiB (0%)
Language                                 : Malay
Default                                  : No
Forced                                   : No

Text #28
ID                                       : 30
Format                                   : UTF-8
Codec ID                                 : S_TEXT/UTF8
Codec ID/Info                            : UTF-8 Plain Text
Duration                                 : 57 min 39 s
Bit rate                                 : 50 b/s
Frame rate                               : 0.218 FPS
Count of elements                        : 754
Stream size                              : 21.3 KiB (0%)
Language                                 : Norwegian Bokmal
Default                                  : No
Forced                                   : No

Text #29
ID                                       : 31
Format                                   : UTF-8
Codec ID                                 : S_TEXT/UTF8
Codec ID/Info                            : UTF-8 Plain Text
Duration                                 : 57 min 39 s
Bit rate                                 : 48 b/s
Frame rate                               : 0.214 FPS
Count of elements                        : 740
Stream size                              : 20.7 KiB (0%)
Language                                 : Dutch
Default                                  : No
Forced                                   : No

Text #30
ID                                       : 32
Format                                   : UTF-8
Codec ID                                 : S_TEXT/UTF8
Codec ID/Info                            : UTF-8 Plain Text
Duration                                 : 57 min 39 s
Bit rate                                 : 47 b/s
Frame rate                               : 0.217 FPS
Count of elements                        : 752
Stream size                              : 19.9 KiB (0%)
Language                                 : Polish
Default                                  : No
Forced                                   : No

Text #31
ID                                       : 33
Format                                   : UTF-8
Codec ID                                 : S_TEXT/UTF8
Codec ID/Info                            : UTF-8 Plain Text
Duration                                 : 57 min 39 s
Bit rate                                 : 54 b/s
Frame rate                               : 0.214 FPS
Count of elements                        : 740
Stream size                              : 23.0 KiB (0%)
Language                                 : Portuguese
Default                                  : No
Forced                                   : No

Text #32
ID                                       : 34
Format                                   : UTF-8
Codec ID                                 : S_TEXT/UTF8
Codec ID/Info                            : UTF-8 Plain Text
Duration                                 : 57 min 39 s
Bit rate                                 : 50 b/s
Frame rate                               : 0.218 FPS
Count of elements                        : 753
Stream size                              : 21.2 KiB (0%)
Title                                    : Brazilian
Language                                 : Portuguese
Default                                  : No
Forced                                   : No

Text #33
ID                                       : 35
Format                                   : UTF-8
Codec ID                                 : S_TEXT/UTF8
Codec ID/Info                            : UTF-8 Plain Text
Duration                                 : 57 min 39 s
Bit rate                                 : 57 b/s
Frame rate                               : 0.218 FPS
Count of elements                        : 753
Stream size                              : 24.1 KiB (0%)
Language                                 : Romanian
Default                                  : No
Forced                                   : No

Text #34
ID                                       : 36
Format                                   : UTF-8
Codec ID                                 : S_TEXT/UTF8
Codec ID/Info                            : UTF-8 Plain Text
Duration                                 : 57 min 39 s
Bit rate                                 : 84 b/s
Frame rate                               : 0.218 FPS
Count of elements                        : 754
Stream size                              : 35.8 KiB (0%)
Language                                 : Russian
Default                                  : No
Forced                                   : No

Text #35
ID                                       : 37
Format                                   : UTF-8
Codec ID                                 : S_TEXT/UTF8
Codec ID/Info                            : UTF-8 Plain Text
Duration                                 : 57 min 39 s
Bit rate                                 : 49 b/s
Frame rate                               : 0.216 FPS
Count of elements                        : 746
Stream size                              : 20.9 KiB (0%)
Language                                 : Swedish
Default                                  : No
Forced                                   : No

Text #36
ID                                       : 38
Format                                   : UTF-8
Codec ID                                 : S_TEXT/UTF8
Codec ID/Info                            : UTF-8 Plain Text
Duration                                 : 57 min 39 s
Bit rate                                 : 134 b/s
Frame rate                               : 0.218 FPS
Count of elements                        : 754
Stream size                              : 56.9 KiB (0%)
Language                                 : Tamil
Default                                  : No
Forced                                   : No

Text #37
ID                                       : 39
Format                                   : UTF-8
Codec ID                                 : S_TEXT/UTF8
Codec ID/Info                            : UTF-8 Plain Text
Duration                                 : 57 min 39 s
Bit rate                                 : 126 b/s
Frame rate                               : 0.218 FPS
Count of elements                        : 754
Stream size                              : 53.6 KiB (0%)
Language                                 : Telugu
Default                                  : No
Forced                                   : No

Text #38
ID                                       : 40
Format                                   : UTF-8
Codec ID                                 : S_TEXT/UTF8
Codec ID/Info                            : UTF-8 Plain Text
Duration                                 : 57 min 39 s
Bit rate                                 : 139 b/s
Frame rate                               : 0.218 FPS
Count of elements                        : 754
Stream size                              : 59.1 KiB (0%)
Language                                 : Thai
Default                                  : No
Forced                                   : No

Text #39
ID                                       : 41
Format                                   : UTF-8
Codec ID                                 : S_TEXT/UTF8
Codec ID/Info                            : UTF-8 Plain Text
Duration                                 : 57 min 39 s
Bit rate                                 : 51 b/s
Frame rate                               : 0.218 FPS
Count of elements                        : 754
Stream size                              : 21.8 KiB (0%)
Language                                 : Turkish
Default                                  : No
Forced                                   : No

Text #40
ID                                       : 42
Format                                   : UTF-8
Codec ID                                 : S_TEXT/UTF8
Codec ID/Info                            : UTF-8 Plain Text
Duration                                 : 57 min 39 s
Bit rate                                 : 80 b/s
Frame rate                               : 0.218 FPS
Count of elements                        : 754
Stream size                              : 34.1 KiB (0%)
Title                                    : Ukraine
Language                                 : Ukrainian
Default                                  : No
Forced                                   : No

Text #41
ID                                       : 43
Format                                   : UTF-8
Codec ID                                 : S_TEXT/UTF8
Codec ID/Info                            : UTF-8 Plain Text
Duration                                 : 57 min 39 s
Bit rate                                 : 64 b/s
Frame rate                               : 0.218 FPS
Count of elements                        : 754
Stream size                              : 27.3 KiB (0%)
Title                                    : Vietnam
Language                                 : Vietnamese
Default                                  : No
Forced                                   : No

Text #42
ID                                       : 44
Format                                   : UTF-8
Codec ID                                 : S_TEXT/UTF8
Codec ID/Info                            : UTF-8 Plain Text
Duration                                 : 57 min 39 s
Bit rate                                 : 53 b/s
Frame rate                               : 0.218 FPS
Count of elements                        : 754
Stream size                              : 22.5 KiB (0%)
Title                                    : Simplified
Language                                 : Chinese
Default                                  : No
Forced                                   : No

Text #43
ID                                       : 45
Format                                   : UTF-8
Codec ID                                 : S_TEXT/UTF8
Codec ID/Info                            : UTF-8 Plain Text
Duration                                 : 57 min 25 s
Bit rate                                 : 49 b/s
Frame rate                               : 0.218 FPS
Count of elements                        : 751
Stream size                              : 20.7 KiB (0%)
Title                                    : Traditional
Language                                 : Chinese
Default                                  : No
Forced                                   : No

Menu
00:00:00.000                             : en:Prime Video
00:00:07.000                             : en:Scene 2
00:00:31.000                             : en:Title Sequence
00:00:38.000                             : en:Scene 4
00:01:40.000                             : en:Scene 5
00:03:16.000                             : en:Scene 6
00:04:05.000                             : en:Scene 7
00:06:29.000                             : en:Scene 8
00:10:07.000                             : en:Scene 9
00:11:40.000                             : en:Scene 10
00:16:10.000                             : en:Scene 11
00:20:10.000                             : en:Scene 12
00:24:53.000                             : en:Scene 13
00:30:13.000                             : en:Scene 14
00:32:01.000                             : en:Scene 15
00:34:29.000                             : en:Scene 16
00:35:58.000                             : en:Scene 17
00:39:05.000                             : en:Scene 18
00:41:17.000                             : en:Scene 19
00:42:03.000                             : en:Scene 20
00:43:54.000                             : en:Scene 21
00:48:33.000                             : en:Scene 22
00:49:58.000                             : en:Scene 23
00:52:19.000                             : en:Scene 24
00:54:32.000                             : en:Scene 25
00:55:33.000                             : en:Scene 26
00:56:22.000                             : en:End Credits



Download
File Container: MKV
Video/Audio Codec: H264 (HIGH) EAC3
Video Resolution: 1920x1040

1 Response to "[RR/NF] Expats S01E04 Mainland 1080p AMZN WEB-DL DDP5 1 H 264-CMRG (4.1GB)"
02/09/24
18:24:33
ReadyPlayerOne

Thank You

Please Login to post a comment.
If you don't have any account, please Register.
  • Subscribe my Feeds
  • Facebook
Encoding Queue:  x264  x265

Latest Episodes

Popular Movies and TV Shows

  • S.W.A.T.
  • Blue Bloods
  • Maid Droid
  • Fire Country
  • Megamind vs. The Doom Syndicate
  • The Fault in Our Stars
  • Wolf Like Me
  • The Rookie
  • Dune
  • Penn & Teller: Fool Us
  • The Late Game
  • Tiger Nageswara Rao
  • Spaceman
  • Young Sheldon
  • Malpractice
  • Real Time with Bill Maher
  • The Seeding
  • Firefox
  • Masters of the Air
  • Halo
  • Lola
  • Ghosts
  • Dune: Part Two
  • Northern Comfort
  • Resident Alien

Recent Comments

  • ruf999:

    hanyou

  • uncabrian: If you can, please upload other seasons of "Eureka" in the same format and size. Much appr...
  • pr4455:

    hi this movie has no audio just commentry

  • asalan:

    please reupload.

  • asalan:

    reupload please.

  • newuser:

    need English Sub that Sync

  • Bud:

    Can we get a re-up on the clicknupload link please? Current link is dead.

Archives