Sign Up   |   Sign In  
SugarA Gentleman in MoscowYoung SheldonRiver WildDune: Part TwoThe Two PopesLaw & Order: Special Victims UnitManhuntGhostsYou Were Never Really HereBarbarianThe ReaderStar Trek: DiscoveryFamily GuyAmerican Horror StoryGhostbusters: Frozen EmpireThe Three Musketeers - Part II: MiladyGreen LanternChuckyThe Bold and the BeautifulWalkerGodzilla x Kong: The New EmpireLa margeThe InseparablesFBI

Announcements

02/19

2024

1

Comments

Expats S01E05 Central 720p AMZN WEB-DL DDP5 1 H 264-CMRG
[RR/NF]
Size: 2.6GB mkv H264 (HIGH) / EAC3  HD  1248x520

Expats
File Information
[img]http://lookpic.com/cdn/i2/t/0219202404165646-1.jpg[/img]
[img]http://lookpic.com/cdn/i2/t/0219202404165646-2.jpg[/img]
[img]http://lookpic.com/cdn/i2/t/0219202404165646-3.jpg[/img]

General
Unique ID                                : 32539392060233203916020036078748715248 (0x187ADBE46A66D3A9DEF326BD803248F0)
Complete name                            : Expats.S01E05.Central.720p.AMZN.WEB-DL.DDP5.1.H.264-CMRG.mkv
Format                                   : Matroska
Format version                           : Version 4
File size                                : 2.65 GiB
Duration                                 : 1 h 40 min
Overall bit rate                         : 3 785 kb/s
Frame rate                               : 23.976 FPS
Writing application                      : mkvmerge v79.0 ('Funeral Pyres') 64-bit
Writing library                          : libebml v1.4.4 + libmatroska v1.7.1

Video
ID                                       : 1
Format                                   : AVC
Format/Info                              : Advanced Video Codec
Format profile                           : High@L3.1
Format settings                          : CABAC / 4 Ref Frames
Format settings, CABAC                   : Yes
Format settings, Reference frames        : 4 frames
Codec ID                                 : V_MPEG4/ISO/AVC
Duration                                 : 1 h 40 min
Bit rate mode                            : Constant
Bit rate                                 : 3 138 kb/s
Nominal bit rate                         : 4 000 kb/s
Width                                    : 1 248 pixels
Height                                   : 520 pixels
Display aspect ratio                     : 2.40:1
Frame rate mode                          : Constant
Frame rate                               : 23.976 (24000/1001) FPS
Color space                              : YUV
Chroma subsampling                       : 4:2:0
Bit depth                                : 8 bits
Scan type                                : Progressive
Bits/(Pixel*Frame)                       : 0.202
Stream size                              : 2.19 GiB (83%)
Language                                 : English (US)
Default                                  : Yes
Forced                                   : No
Color range                              : Limited
Color primaries                          : BT.709
Transfer characteristics                 : BT.709
Matrix coefficients                      : BT.709

Audio
ID                                       : 2
Format                                   : E-AC-3
Format/Info                              : Enhanced AC-3
Commercial name                          : Dolby Digital Plus
Codec ID                                 : A_EAC3
Duration                                 : 1 h 40 min
Bit rate mode                            : Constant
Bit rate                                 : 640 kb/s
Channel(s)                               : 6 channels
Channel layout                           : L R C LFE Ls Rs
Sampling rate                            : 48.0 kHz
Frame rate                               : 31.250 FPS (1536 SPF)
Compression mode                         : Lossy
Stream size                              : 458 MiB (17%)
Language                                 : English (US)
Service kind                             : Complete Main
Default                                  : Yes
Forced                                   : No

Text #1
ID                                       : 3
Format                                   : UTF-8
Codec ID                                 : S_TEXT/UTF8
Codec ID/Info                            : UTF-8 Plain Text
Duration                                 : 1 h 26 min
Bit rate                                 : 18 b/s
Frame rate                               : 0.087 FPS
Count of elements                        : 451
Stream size                              : 11.9 KiB (0%)
Title                                    : Forced
Language                                 : English (US)
Default                                  : Yes
Forced                                   : Yes

Text #2
ID                                       : 4
Format                                   : UTF-8
Codec ID                                 : S_TEXT/UTF8
Codec ID/Info                            : UTF-8 Plain Text
Duration                                 : 1 h 35 min
Bit rate                                 : 57 b/s
Frame rate                               : 0.231 FPS
Count of elements                        : 1328
Stream size                              : 40.2 KiB (0%)
Language                                 : English (US)
Default                                  : No
Forced                                   : No

Text #3
ID                                       : 5
Format                                   : UTF-8
Codec ID                                 : S_TEXT/UTF8
Codec ID/Info                            : UTF-8 Plain Text
Duration                                 : 1 h 36 min
Bit rate                                 : 64 b/s
Frame rate                               : 0.264 FPS
Count of elements                        : 1526
Stream size                              : 45.9 KiB (0%)
Title                                    : SDH
Language                                 : English (US)
Default                                  : No
Forced                                   : No

Text #4
ID                                       : 6
Format                                   : UTF-8
Codec ID                                 : S_TEXT/UTF8
Codec ID/Info                            : UTF-8 Plain Text
Duration                                 : 1 h 36 min
Bit rate                                 : 86 b/s
Frame rate                               : 0.207 FPS
Count of elements                        : 1202
Stream size                              : 61.3 KiB (0%)
Language                                 : Arabic (001)
Default                                  : No
Forced                                   : No

Text #5
ID                                       : 7
Format                                   : UTF-8
Codec ID                                 : S_TEXT/UTF8
Codec ID/Info                            : UTF-8 Plain Text
Duration                                 : 1 h 36 min
Bit rate                                 : 43 b/s
Frame rate                               : 0.203 FPS
Count of elements                        : 1177
Stream size                              : 31.0 KiB (0%)
Title                                    : European
Language                                 : Catalan (ES)
Default                                  : No
Forced                                   : No

Text #6
ID                                       : 8
Format                                   : UTF-8
Codec ID                                 : S_TEXT/UTF8
Codec ID/Info                            : UTF-8 Plain Text
Duration                                 : 1 h 36 min
Bit rate                                 : 47 b/s
Frame rate                               : 0.206 FPS
Count of elements                        : 1194
Stream size                              : 33.9 KiB (0%)
Language                                 : Czech (CZ)
Default                                  : No
Forced                                   : No

Text #7
ID                                       : 9
Format                                   : UTF-8
Codec ID                                 : S_TEXT/UTF8
Codec ID/Info                            : UTF-8 Plain Text
Duration                                 : 1 h 36 min
Bit rate                                 : 49 b/s
Frame rate                               : 0.206 FPS
Count of elements                        : 1197
Stream size                              : 35.0 KiB (0%)
Language                                 : Danish (DK)
Default                                  : No
Forced                                   : No

Text #8
ID                                       : 10
Format                                   : UTF-8
Codec ID                                 : S_TEXT/UTF8
Codec ID/Info                            : UTF-8 Plain Text
Duration                                 : 1 h 34 min
Bit rate                                 : 48 b/s
Frame rate                               : 0.204 FPS
Count of elements                        : 1156
Stream size                              : 34.0 KiB (0%)
Language                                 : German (DE)
Default                                  : No
Forced                                   : No

Text #9
ID                                       : 11
Format                                   : UTF-8
Codec ID                                 : S_TEXT/UTF8
Codec ID/Info                            : UTF-8 Plain Text
Duration                                 : 1 h 36 min
Bit rate                                 : 87 b/s
Frame rate                               : 0.206 FPS
Count of elements                        : 1194
Stream size                              : 61.7 KiB (0%)
Language                                 : Greek (GR)
Default                                  : No
Forced                                   : No

Text #10
ID                                       : 12
Format                                   : UTF-8
Codec ID                                 : S_TEXT/UTF8
Codec ID/Info                            : UTF-8 Plain Text
Duration                                 : 1 h 36 min
Bit rate                                 : 46 b/s
Frame rate                               : 0.207 FPS
Count of elements                        : 1203
Stream size                              : 33.1 KiB (0%)
Title                                    : Latin American
Language                                 : Spanish (Latin America)
Default                                  : No
Forced                                   : No

Text #11
ID                                       : 13
Format                                   : UTF-8
Codec ID                                 : S_TEXT/UTF8
Codec ID/Info                            : UTF-8 Plain Text
Duration                                 : 1 h 36 min
Bit rate                                 : 45 b/s
Frame rate                               : 0.207 FPS
Count of elements                        : 1199
Stream size                              : 32.1 KiB (0%)
Title                                    : European
Language                                 : Basque (ES)
Default                                  : No
Forced                                   : No

Text #12
ID                                       : 14
Format                                   : UTF-8
Codec ID                                 : S_TEXT/UTF8
Codec ID/Info                            : UTF-8 Plain Text
Duration                                 : 1 h 36 min
Bit rate                                 : 45 b/s
Frame rate                               : 0.206 FPS
Count of elements                        : 1197
Stream size                              : 32.5 KiB (0%)
Language                                 : Finnish (FI)
Default                                  : No
Forced                                   : No

Text #13
ID                                       : 15
Format                                   : UTF-8
Codec ID                                 : S_TEXT/UTF8
Codec ID/Info                            : UTF-8 Plain Text
Duration                                 : 1 h 36 min
Bit rate                                 : 44 b/s
Frame rate                               : 0.173 FPS
Count of elements                        : 1002
Stream size                              : 31.5 KiB (0%)
Language                                 : Filipino (PH)
Default                                  : No
Forced                                   : No

Text #14
ID                                       : 16
Format                                   : UTF-8
Codec ID                                 : S_TEXT/UTF8
Codec ID/Info                            : UTF-8 Plain Text
Duration                                 : 1 h 36 min
Bit rate                                 : 52 b/s
Frame rate                               : 0.207 FPS
Count of elements                        : 1202
Stream size                              : 37.3 KiB (0%)
Title                                    : Canadian
Language                                 : French (CA)
Default                                  : No
Forced                                   : No

Text #15
ID                                       : 17
Format                                   : UTF-8
Codec ID                                 : S_TEXT/UTF8
Codec ID/Info                            : UTF-8 Plain Text
Duration                                 : 1 h 34 min
Bit rate                                 : 40 b/s
Frame rate                               : 0.204 FPS
Count of elements                        : 1158
Stream size                              : 27.8 KiB (0%)
Title                                    : European
Language                                 : Galician (ES)
Default                                  : No
Forced                                   : No

Text #16
ID                                       : 18
Format                                   : UTF-8
Codec ID                                 : S_TEXT/UTF8
Codec ID/Info                            : UTF-8 Plain Text
Duration                                 : 1 h 36 min
Bit rate                                 : 76 b/s
Frame rate                               : 0.207 FPS
Count of elements                        : 1201
Stream size                              : 54.3 KiB (0%)
Language                                 : Hebrew (IL)
Default                                  : No
Forced                                   : No

Text #17
ID                                       : 19
Format                                   : UTF-8
Codec ID                                 : S_TEXT/UTF8
Codec ID/Info                            : UTF-8 Plain Text
Duration                                 : 1 h 36 min
Bit rate                                 : 119 b/s
Frame rate                               : 0.207 FPS
Count of elements                        : 1202
Stream size                              : 84.6 KiB (0%)
Language                                 : Hindi (IN)
Default                                  : No
Forced                                   : No

Text #18
ID                                       : 20
Format                                   : UTF-8
Codec ID                                 : S_TEXT/UTF8
Codec ID/Info                            : UTF-8 Plain Text
Duration                                 : 1 h 36 min
Bit rate                                 : 50 b/s
Frame rate                               : 0.207 FPS
Count of elements                        : 1201
Stream size                              : 35.5 KiB (0%)
Language                                 : Hungarian (HU)
Default                                  : No
Forced                                   : No

Text #19
ID                                       : 21
Format                                   : UTF-8
Codec ID                                 : S_TEXT/UTF8
Codec ID/Info                            : UTF-8 Plain Text
Duration                                 : 1 h 36 min
Bit rate                                 : 46 b/s
Frame rate                               : 0.207 FPS
Count of elements                        : 1199
Stream size                              : 33.2 KiB (0%)
Language                                 : Indonesian (ID)
Default                                  : No
Forced                                   : No

Text #20
ID                                       : 22
Format                                   : UTF-8
Codec ID                                 : S_TEXT/UTF8
Codec ID/Info                            : UTF-8 Plain Text
Duration                                 : 1 h 36 min
Bit rate                                 : 46 b/s
Frame rate                               : 0.207 FPS
Count of elements                        : 1199
Stream size                              : 33.3 KiB (0%)
Language                                 : Italian (IT)
Default                                  : No
Forced                                   : No

Text #21
ID                                       : 23
Format                                   : UTF-8
Codec ID                                 : S_TEXT/UTF8
Codec ID/Info                            : UTF-8 Plain Text
Duration                                 : 1 h 36 min
Bit rate                                 : 45 b/s
Frame rate                               : 0.183 FPS
Count of elements                        : 1063
Stream size                              : 32.2 KiB (0%)
Language                                 : Japanese (JP)
Default                                  : No
Forced                                   : No

Text #22
ID                                       : 24
Format                                   : UTF-8
Codec ID                                 : S_TEXT/UTF8
Codec ID/Info                            : UTF-8 Plain Text
Duration                                 : 1 h 36 min
Bit rate                                 : 132 b/s
Frame rate                               : 0.207 FPS
Count of elements                        : 1202
Stream size                              : 93.6 KiB (0%)
Language                                 : Kannada (IN)
Default                                  : No
Forced                                   : No

Text #23
ID                                       : 25
Format                                   : UTF-8
Codec ID                                 : S_TEXT/UTF8
Codec ID/Info                            : UTF-8 Plain Text
Duration                                 : 1 h 36 min
Bit rate                                 : 52 b/s
Frame rate                               : 0.207 FPS
Count of elements                        : 1200
Stream size                              : 37.1 KiB (0%)
Language                                 : Korean (KR)
Default                                  : No
Forced                                   : No

Text #24
ID                                       : 26
Format                                   : UTF-8
Codec ID                                 : S_TEXT/UTF8
Codec ID/Info                            : UTF-8 Plain Text
Duration                                 : 1 h 36 min
Bit rate                                 : 148 b/s
Frame rate                               : 0.206 FPS
Count of elements                        : 1195
Stream size                              : 105 KiB (0%)
Language                                 : Malayalam (IN)
Default                                  : No
Forced                                   : No

Text #25
ID                                       : 27
Format                                   : UTF-8
Codec ID                                 : S_TEXT/UTF8
Codec ID/Info                            : UTF-8 Plain Text
Duration                                 : 1 h 36 min
Bit rate                                 : 45 b/s
Frame rate                               : 0.207 FPS
Count of elements                        : 1199
Stream size                              : 32.5 KiB (0%)
Language                                 : Malay (MY)
Default                                  : No
Forced                                   : No

Text #26
ID                                       : 28
Format                                   : UTF-8
Codec ID                                 : S_TEXT/UTF8
Codec ID/Info                            : UTF-8 Plain Text
Duration                                 : 1 h 36 min
Bit rate                                 : 47 b/s
Frame rate                               : 0.207 FPS
Count of elements                        : 1200
Stream size                              : 33.4 KiB (0%)
Language                                 : Norwegian Bokmal (NO)
Default                                  : No
Forced                                   : No

Text #27
ID                                       : 29
Format                                   : UTF-8
Codec ID                                 : S_TEXT/UTF8
Codec ID/Info                            : UTF-8 Plain Text
Duration                                 : 1 h 36 min
Bit rate                                 : 46 b/s
Frame rate                               : 0.204 FPS
Count of elements                        : 1182
Stream size                              : 33.1 KiB (0%)
Language                                 : Dutch (NL)
Default                                  : No
Forced                                   : No

Text #28
ID                                       : 30
Format                                   : UTF-8
Codec ID                                 : S_TEXT/UTF8
Codec ID/Info                            : UTF-8 Plain Text
Duration                                 : 1 h 36 min
Bit rate                                 : 44 b/s
Frame rate                               : 0.205 FPS
Count of elements                        : 1191
Stream size                              : 31.5 KiB (0%)
Language                                 : Polish (PL)
Default                                  : No
Forced                                   : No

Text #29
ID                                       : 31
Format                                   : UTF-8
Codec ID                                 : S_TEXT/UTF8
Codec ID/Info                            : UTF-8 Plain Text
Duration                                 : 1 h 36 min
Bit rate                                 : 46 b/s
Frame rate                               : 0.207 FPS
Count of elements                        : 1202
Stream size                              : 33.2 KiB (0%)
Title                                    : Brazilian
Language                                 : Portuguese (BR)
Default                                  : No
Forced                                   : No

Text #30
ID                                       : 32
Format                                   : UTF-8
Codec ID                                 : S_TEXT/UTF8
Codec ID/Info                            : UTF-8 Plain Text
Duration                                 : 1 h 36 min
Bit rate                                 : 53 b/s
Frame rate                               : 0.207 FPS
Count of elements                        : 1202
Stream size                              : 37.9 KiB (0%)
Language                                 : Romanian (RO)
Default                                  : No
Forced                                   : No

Text #31
ID                                       : 33
Format                                   : UTF-8
Codec ID                                 : S_TEXT/UTF8
Codec ID/Info                            : UTF-8 Plain Text
Duration                                 : 1 h 36 min
Bit rate                                 : 79 b/s
Frame rate                               : 0.207 FPS
Count of elements                        : 1200
Stream size                              : 56.1 KiB (0%)
Language                                 : Russian (RU)
Default                                  : No
Forced                                   : No

Text #32
ID                                       : 34
Format                                   : UTF-8
Codec ID                                 : S_TEXT/UTF8
Codec ID/Info                            : UTF-8 Plain Text
Duration                                 : 1 h 36 min
Bit rate                                 : 48 b/s
Frame rate                               : 0.207 FPS
Count of elements                        : 1199
Stream size                              : 34.1 KiB (0%)
Language                                 : Swedish (SE)
Default                                  : No
Forced                                   : No

Text #33
ID                                       : 35
Format                                   : UTF-8
Codec ID                                 : S_TEXT/UTF8
Codec ID/Info                            : UTF-8 Plain Text
Duration                                 : 1 h 36 min
Bit rate                                 : 124 b/s
Frame rate                               : 0.207 FPS
Count of elements                        : 1201
Stream size                              : 87.8 KiB (0%)
Language                                 : Tamil (IN)
Default                                  : No
Forced                                   : No

Text #34
ID                                       : 36
Format                                   : UTF-8
Codec ID                                 : S_TEXT/UTF8
Codec ID/Info                            : UTF-8 Plain Text
Duration                                 : 1 h 36 min
Bit rate                                 : 116 b/s
Frame rate                               : 0.207 FPS
Count of elements                        : 1202
Stream size                              : 82.5 KiB (0%)
Language                                 : Telugu (IN)
Default                                  : No
Forced                                   : No

Text #35
ID                                       : 37
Format                                   : UTF-8
Codec ID                                 : S_TEXT/UTF8
Codec ID/Info                            : UTF-8 Plain Text
Duration                                 : 1 h 36 min
Bit rate                                 : 129 b/s
Frame rate                               : 0.207 FPS
Count of elements                        : 1201
Stream size                              : 92.0 KiB (0%)
Language                                 : Thai (TH)
Default                                  : No
Forced                                   : No

Text #36
ID                                       : 38
Format                                   : UTF-8
Codec ID                                 : S_TEXT/UTF8
Codec ID/Info                            : UTF-8 Plain Text
Duration                                 : 1 h 36 min
Bit rate                                 : 48 b/s
Frame rate                               : 0.207 FPS
Count of elements                        : 1201
Stream size                              : 34.1 KiB (0%)
Language                                 : Turkish (TR)
Default                                  : No
Forced                                   : No

Text #37
ID                                       : 39
Format                                   : UTF-8
Codec ID                                 : S_TEXT/UTF8
Codec ID/Info                            : UTF-8 Plain Text
Duration                                 : 1 h 36 min
Bit rate                                 : 73 b/s
Frame rate                               : 0.207 FPS
Count of elements                        : 1201
Stream size                              : 52.2 KiB (0%)
Title                                    : Ukraine
Language                                 : Ukrainian (UA)
Default                                  : No
Forced                                   : No

Text #38
ID                                       : 40
Format                                   : UTF-8
Codec ID                                 : S_TEXT/UTF8
Codec ID/Info                            : UTF-8 Plain Text
Duration                                 : 1 h 36 min
Bit rate                                 : 61 b/s
Frame rate                               : 0.207 FPS
Count of elements                        : 1202
Stream size                              : 43.6 KiB (0%)
Title                                    : Vietnam
Language                                 : Vietnamese (VN)
Default                                  : No
Forced                                   : No

Text #39
ID                                       : 41
Format                                   : UTF-8
Codec ID                                 : S_TEXT/UTF8
Codec ID/Info                            : UTF-8 Plain Text
Duration                                 : 1 h 36 min
Bit rate                                 : 46 b/s
Frame rate                               : 0.207 FPS
Count of elements                        : 1202
Stream size                              : 33.0 KiB (0%)
Title                                    : Simplified
Language                                 : Chinese (Simplified)
Default                                  : No
Forced                                   : No

Text #40
ID                                       : 42
Format                                   : UTF-8
Codec ID                                 : S_TEXT/UTF8
Codec ID/Info                            : UTF-8 Plain Text
Duration                                 : 1 h 36 min
Bit rate                                 : 42 b/s
Frame rate                               : 0.207 FPS
Count of elements                        : 1200
Stream size                              : 30.3 KiB (0%)
Title                                    : Traditional
Language                                 : Chinese (Traditional)
Default                                  : No
Forced                                   : No

Menu
00:00:00.000                             : en:Prime Video
00:00:08.000                             : en:Scene 2
00:00:16.000                             : en:Scene 3
00:01:54.000                             : en:Title Sequence
00:02:01.000                             : en:Scene 5
00:05:10.000                             : en:Scene 6
00:07:04.000                             : en:Scene 7
00:10:37.000                             : en:Scene 8
00:13:21.000                             : en:Scene 9
00:15:38.000                             : en:Scene 10
00:19:29.000                             : en:Scene 11
00:22:59.000                             : en:Scene 12
00:24:14.000                             : en:Scene 13
00:27:12.000                             : en:Scene 14
00:28:24.000                             : en:Scene 15
00:30:15.000                             : en:Scene 16
00:31:36.000                             : en:Scene 17
00:33:57.000                             : en:Scene 18
00:36:23.000                             : en:Scene 19
00:38:18.000                             : en:Scene 20
00:40:21.000                             : en:Scene 21
00:41:44.000                             : en:Scene 22
00:41:51.000                             : en:Scene 23
00:42:39.000                             : en:Scene 24
00:47:01.000                             : en:Scene 25
00:48:06.000                             : en:Scene 26
00:50:07.000                             : en:Scene 27
00:52:02.000                             : en:Scene 28
00:52:08.000                             : en:Scene 29
00:54:22.000                             : en:Scene 30
00:57:18.000                             : en:Scene 31
01:00:21.000                             : en:Scene 32
01:01:43.000                             : en:Scene 33
01:06:48.000                             : en:Scene 34
01:08:50.000                             : en:Scene 35
01:09:55.000                             : en:Scene 36
01:11:00.000                             : en:Scene 37
01:12:31.000                             : en:Scene 38
01:13:16.000                             : en:Scene 39
01:16:52.000                             : en:Scene 40
01:21:07.000                             : en:Scene 41
01:26:29.000                             : en:Scene 42
01:26:56.000                             : en:Scene 43
01:27:47.000                             : en:Scene 44
01:28:38.000                             : en:Scene 45
01:29:37.000                             : en:Scene 46
01:30:21.000                             : en:Scene 47
01:30:49.000                             : en:Scene 48
01:33:01.000                             : en:Scene 49
01:34:13.000                             : en:Scene 50
01:35:08.000                             : en:End Credits



Download
File Container: MKV
Video/Audio Codec: H264 (HIGH) EAC3
Video Resolution: 1248x520

1 Response to "[RR/NF] Expats S01E05 Central 720p AMZN WEB-DL DDP5 1 H 264-CMRG (2.6GB)"
02/19/24
15:01:16
ReadyPlayerOne

Thank You

Please Login to post a comment.
If you don't have any account, please Register.
  • Subscribe my Feeds
  • Facebook
Encoding Queue:  x264  x265

Latest Episodes

Popular Movies and TV Shows

  • Sugar
  • A Gentleman in Moscow
  • Young Sheldon
  • River Wild
  • Dune: Part Two
  • The Two Popes
  • Law & Order: Special Victims Unit
  • Manhunt
  • Ghosts
  • You Were Never Really Here
  • Barbarian
  • The Reader
  • Star Trek: Discovery
  • Family Guy
  • American Horror Story
  • Ghostbusters: Frozen Empire
  • The Three Musketeers - Part II: Milady
  • Green Lantern
  • Chucky
  • The Bold and the Beautiful
  • Walker
  • Godzilla x Kong: The New Empire
  • La marge
  • The Inseparables
  • FBI

Recent Comments

  • yopo:

    NitroFlare's link is missing !!!

  • yopo:

    NitroFlare's link is missing !!!

  • yopo:

    NitroFlare's link is missing !!!
    Clicknupload's link is missing !!!

  • yopo:

    NitroFlare's link is missing !!!

  • dragonnightfire: I have tried contacting Rapid Rar to find out what is going on with the server maintainance. I am no...
  • dragonnightfire:

    RR links dead on 5 eps

  • Draveren: hi. can we solve this "server under maintenance" stuff, already? if back in the day i'd ke...
  • Majnon: The links are dead. Please re-upload
  • timt:

    Anyone have the movie "Shoot" (1976) to post?

  • Nightshade: Hey, it appears at least the RMTeam separate episodes and ION's packs for the first two seasons of t...
  • Bigfishguy:

    There's no free option to download this video. Can someone please upload it to clicknupload?

  • timt:

    Junk

  • timt:

    CAM Audio

  • timt:

    Hard Coded SUMS! Russian, I Think.

  • ubirattan:

    Mandem um Fikper, por favor.

  • kellym2: No answer yet for my query - why all the episodes "server under maintenance" on some episo...
  • Majnon:

    Rapidrar links are dead :(

  • Rake:

    Loads of "Server is under maintenance" with RR theese days...

  • kellym2: Why am I getting "Server is in maintenance mode" on some episodes of a series and not on o...

Archives