Sign Up   |   Sign In  
Columbia: The Final FlightNCIS: Hawai'iDune: Part TwoBlue LightsThe 100th: Billy Joel at Madison Square Garden - The Greatest Arena Run of All TimeKiller Fortune TellerThe GentlemenFamily GuyBob Hearts AbisholaHundreds of BeaversStill: A Michael J. Fox MovieMoney TalksThe SympathizerTrackerThe Great NorthModel HouseAbba: How They Won EurovisionKurt Cobain: Moments That Shook MusicWhen Calls the HeartSullivan's CrossingBeacon 23The ChannelThe Batman vs. DraculaThere's Still TomorrowFallout

Announcements

02/23

2024

No

Comments

Expats S01E06 Home 720p AMZN WEB-DL DDP5 1 H 264-CMRG
[RR/NF/CU]
Size: 1.8GB mkv H264 (HIGH) / EAC3  HD  1280x688

Expats
File Information
[img]http://lookpic.com/cdn/i2/t/0223202410290490-1.jpg[/img]
[img]http://lookpic.com/cdn/i2/t/0223202410290490-2.jpg[/img]
[img]http://lookpic.com/cdn/i2/t/0223202410290490-3.jpg[/img]

General
Unique ID                                : 333196163903246961870124974080613528580 (0xFAAB3F3790EED49C108694650391B404)
Complete name                            : Expats.S01E06.Home.720p.AMZN.WEB-DL.DDP5.1.H.264-CMRG.mkv
Format                                   : Matroska
Format version                           : Version 4
File size                                : 1.81 GiB
Duration                                 : 1 h 0 min
Overall bit rate                         : 4 278 kb/s
Frame rate                               : 23.976 FPS
Writing application                      : mkvmerge v79.0 ('Funeral Pyres') 64-bit
Writing library                          : libebml v1.4.4 + libmatroska v1.7.1

Video
ID                                       : 1
Format                                   : AVC
Format/Info                              : Advanced Video Codec
Format profile                           : High@L3.1
Format settings                          : CABAC / 4 Ref Frames
Format settings, CABAC                   : Yes
Format settings, Reference frames        : 4 frames
Codec ID                                 : V_MPEG4/ISO/AVC
Duration                                 : 1 h 0 min
Bit rate mode                            : Constant
Bit rate                                 : 3 632 kb/s
Nominal bit rate                         : 4 000 kb/s
Width                                    : 1 280 pixels
Height                                   : 688 pixels
Display aspect ratio                     : 1.85:1
Frame rate mode                          : Constant
Frame rate                               : 23.976 (24000/1001) FPS
Color space                              : YUV
Chroma subsampling                       : 4:2:0
Bit depth                                : 8 bits
Scan type                                : Progressive
Bits/(Pixel*Frame)                       : 0.172
Stream size                              : 1.54 GiB (85%)
Language                                 : English (US)
Default                                  : Yes
Forced                                   : No
Color range                              : Limited
Color primaries                          : BT.709
Transfer characteristics                 : BT.709
Matrix coefficients                      : BT.709

Audio
ID                                       : 2
Format                                   : E-AC-3
Format/Info                              : Enhanced AC-3
Commercial name                          : Dolby Digital Plus
Codec ID                                 : A_EAC3
Duration                                 : 1 h 0 min
Bit rate mode                            : Constant
Bit rate                                 : 640 kb/s
Channel(s)                               : 6 channels
Channel layout                           : L R C LFE Ls Rs
Sampling rate                            : 48.0 kHz
Frame rate                               : 31.250 FPS (1536 SPF)
Compression mode                         : Lossy
Stream size                              : 278 MiB (15%)
Language                                 : English (US)
Service kind                             : Complete Main
Default                                  : Yes
Forced                                   : No

Text #1
ID                                       : 3
Format                                   : UTF-8
Codec ID                                 : S_TEXT/UTF8
Codec ID/Info                            : UTF-8 Plain Text
Duration                                 : 36 min 7 s
Bit rate                                 : 3 b/s
Frame rate                               : 0.022 FPS
Count of elements                        : 48
Stream size                              : 1.02 KiB (0%)
Title                                    : Forced
Language                                 : English (US)
Default                                  : Yes
Forced                                   : Yes

Text #2
ID                                       : 4
Format                                   : UTF-8
Codec ID                                 : S_TEXT/UTF8
Codec ID/Info                            : UTF-8 Plain Text
Duration                                 : 51 min 57 s
Bit rate                                 : 61 b/s
Frame rate                               : 0.229 FPS
Count of elements                        : 715
Stream size                              : 23.2 KiB (0%)
Language                                 : English (US)
Default                                  : No
Forced                                   : No

Text #3
ID                                       : 5
Format                                   : UTF-8
Codec ID                                 : S_TEXT/UTF8
Codec ID/Info                            : UTF-8 Plain Text
Duration                                 : 57 min 6 s
Bit rate                                 : 62 b/s
Frame rate                               : 0.233 FPS
Count of elements                        : 798
Stream size                              : 26.1 KiB (0%)
Title                                    : SDH
Language                                 : English (US)
Default                                  : No
Forced                                   : No

Text #4
ID                                       : 6
Format                                   : UTF-8
Codec ID                                 : S_TEXT/UTF8
Codec ID/Info                            : UTF-8 Plain Text
Duration                                 : 55 min 5 s
Bit rate                                 : 88 b/s
Frame rate                               : 0.208 FPS
Count of elements                        : 689
Stream size                              : 35.7 KiB (0%)
Language                                 : Arabic (001)
Default                                  : No
Forced                                   : No

Text #5
ID                                       : 7
Format                                   : UTF-8
Codec ID                                 : S_TEXT/UTF8
Codec ID/Info                            : UTF-8 Plain Text
Duration                                 : 55 min 5 s
Bit rate                                 : 45 b/s
Frame rate                               : 0.205 FPS
Count of elements                        : 679
Stream size                              : 18.3 KiB (0%)
Title                                    : European
Language                                 : Catalan (ES)
Default                                  : No
Forced                                   : No

Text #6
ID                                       : 8
Format                                   : UTF-8
Codec ID                                 : S_TEXT/UTF8
Codec ID/Info                            : UTF-8 Plain Text
Duration                                 : 55 min 5 s
Bit rate                                 : 50 b/s
Frame rate                               : 0.208 FPS
Count of elements                        : 687
Stream size                              : 20.5 KiB (0%)
Language                                 : Czech (CZ)
Default                                  : No
Forced                                   : No

Text #7
ID                                       : 9
Format                                   : UTF-8
Codec ID                                 : S_TEXT/UTF8
Codec ID/Info                            : UTF-8 Plain Text
Duration                                 : 55 min 5 s
Bit rate                                 : 51 b/s
Frame rate                               : 0.208 FPS
Count of elements                        : 689
Stream size                              : 20.9 KiB (0%)
Language                                 : Danish (DK)
Default                                  : No
Forced                                   : No

Text #8
ID                                       : 10
Format                                   : UTF-8
Codec ID                                 : S_TEXT/UTF8
Codec ID/Info                            : UTF-8 Plain Text
Duration                                 : 55 min 5 s
Bit rate                                 : 53 b/s
Frame rate                               : 0.208 FPS
Count of elements                        : 688
Stream size                              : 21.5 KiB (0%)
Language                                 : German (DE)
Default                                  : No
Forced                                   : No

Text #9
ID                                       : 11
Format                                   : UTF-8
Codec ID                                 : S_TEXT/UTF8
Codec ID/Info                            : UTF-8 Plain Text
Duration                                 : 55 min 5 s
Bit rate                                 : 89 b/s
Frame rate                               : 0.208 FPS
Count of elements                        : 688
Stream size                              : 36.2 KiB (0%)
Language                                 : Greek (GR)
Default                                  : No
Forced                                   : No

Text #10
ID                                       : 12
Format                                   : UTF-8
Codec ID                                 : S_TEXT/UTF8
Codec ID/Info                            : UTF-8 Plain Text
Duration                                 : 55 min 5 s
Bit rate                                 : 47 b/s
Frame rate                               : 0.208 FPS
Count of elements                        : 689
Stream size                              : 19.3 KiB (0%)
Title                                    : Latin American
Language                                 : Spanish (Latin America)
Default                                  : No
Forced                                   : No

Text #11
ID                                       : 13
Format                                   : UTF-8
Codec ID                                 : S_TEXT/UTF8
Codec ID/Info                            : UTF-8 Plain Text
Duration                                 : 55 min 5 s
Bit rate                                 : 46 b/s
Frame rate                               : 0.208 FPS
Count of elements                        : 689
Stream size                              : 18.8 KiB (0%)
Title                                    : European
Language                                 : Basque (ES)
Default                                  : No
Forced                                   : No

Text #12
ID                                       : 14
Format                                   : UTF-8
Codec ID                                 : S_TEXT/UTF8
Codec ID/Info                            : UTF-8 Plain Text
Duration                                 : 55 min 5 s
Bit rate                                 : 47 b/s
Frame rate                               : 0.207 FPS
Count of elements                        : 685
Stream size                              : 19.3 KiB (0%)
Language                                 : Finnish (FI)
Default                                  : No
Forced                                   : No

Text #13
ID                                       : 15
Format                                   : UTF-8
Codec ID                                 : S_TEXT/UTF8
Codec ID/Info                            : UTF-8 Plain Text
Duration                                 : 55 min 5 s
Bit rate                                 : 54 b/s
Frame rate                               : 0.208 FPS
Count of elements                        : 688
Stream size                              : 22.0 KiB (0%)
Language                                 : Filipino (PH)
Default                                  : No
Forced                                   : No

Text #14
ID                                       : 16
Format                                   : UTF-8
Codec ID                                 : S_TEXT/UTF8
Codec ID/Info                            : UTF-8 Plain Text
Duration                                 : 55 min 5 s
Bit rate                                 : 55 b/s
Frame rate                               : 0.208 FPS
Count of elements                        : 688
Stream size                              : 22.6 KiB (0%)
Title                                    : Canadian
Language                                 : French (CA)
Default                                  : No
Forced                                   : No

Text #15
ID                                       : 17
Format                                   : UTF-8
Codec ID                                 : S_TEXT/UTF8
Codec ID/Info                            : UTF-8 Plain Text
Duration                                 : 55 min 5 s
Bit rate                                 : 43 b/s
Frame rate                               : 0.208 FPS
Count of elements                        : 689
Stream size                              : 17.5 KiB (0%)
Title                                    : European
Language                                 : Galician (ES)
Default                                  : No
Forced                                   : No

Text #16
ID                                       : 18
Format                                   : UTF-8
Codec ID                                 : S_TEXT/UTF8
Codec ID/Info                            : UTF-8 Plain Text
Duration                                 : 55 min 5 s
Bit rate                                 : 78 b/s
Frame rate                               : 0.208 FPS
Count of elements                        : 689
Stream size                              : 31.8 KiB (0%)
Language                                 : Hebrew (IL)
Default                                  : No
Forced                                   : No

Text #17
ID                                       : 19
Format                                   : UTF-8
Codec ID                                 : S_TEXT/UTF8
Codec ID/Info                            : UTF-8 Plain Text
Duration                                 : 55 min 5 s
Bit rate                                 : 123 b/s
Frame rate                               : 0.208 FPS
Count of elements                        : 689
Stream size                              : 50.0 KiB (0%)
Language                                 : Hindi (IN)
Default                                  : No
Forced                                   : No

Text #18
ID                                       : 20
Format                                   : UTF-8
Codec ID                                 : S_TEXT/UTF8
Codec ID/Info                            : UTF-8 Plain Text
Duration                                 : 55 min 5 s
Bit rate                                 : 53 b/s
Frame rate                               : 0.208 FPS
Count of elements                        : 688
Stream size                              : 21.4 KiB (0%)
Language                                 : Hungarian (HU)
Default                                  : No
Forced                                   : No

Text #19
ID                                       : 21
Format                                   : UTF-8
Codec ID                                 : S_TEXT/UTF8
Codec ID/Info                            : UTF-8 Plain Text
Duration                                 : 55 min 5 s
Bit rate                                 : 49 b/s
Frame rate                               : 0.208 FPS
Count of elements                        : 689
Stream size                              : 19.9 KiB (0%)
Language                                 : Indonesian (ID)
Default                                  : No
Forced                                   : No

Text #20
ID                                       : 22
Format                                   : UTF-8
Codec ID                                 : S_TEXT/UTF8
Codec ID/Info                            : UTF-8 Plain Text
Duration                                 : 55 min 5 s
Bit rate                                 : 49 b/s
Frame rate                               : 0.207 FPS
Count of elements                        : 684
Stream size                              : 19.8 KiB (0%)
Language                                 : Italian (IT)
Default                                  : No
Forced                                   : No

Text #21
ID                                       : 23
Format                                   : UTF-8
Codec ID                                 : S_TEXT/UTF8
Codec ID/Info                            : UTF-8 Plain Text
Duration                                 : 57 min 2 s
Bit rate                                 : 40 b/s
Frame rate                               : 0.194 FPS
Count of elements                        : 663
Stream size                              : 16.9 KiB (0%)
Language                                 : Japanese (JP)
Default                                  : No
Forced                                   : No

Text #22
ID                                       : 24
Format                                   : UTF-8
Codec ID                                 : S_TEXT/UTF8
Codec ID/Info                            : UTF-8 Plain Text
Duration                                 : 55 min 5 s
Bit rate                                 : 139 b/s
Frame rate                               : 0.208 FPS
Count of elements                        : 689
Stream size                              : 56.3 KiB (0%)
Language                                 : Kannada (IN)
Default                                  : No
Forced                                   : No

Text #23
ID                                       : 25
Format                                   : UTF-8
Codec ID                                 : S_TEXT/UTF8
Codec ID/Info                            : UTF-8 Plain Text
Duration                                 : 55 min 5 s
Bit rate                                 : 51 b/s
Frame rate                               : 0.195 FPS
Count of elements                        : 646
Stream size                              : 20.7 KiB (0%)
Language                                 : Korean (KR)
Default                                  : No
Forced                                   : No

Text #24
ID                                       : 26
Format                                   : UTF-8
Codec ID                                 : S_TEXT/UTF8
Codec ID/Info                            : UTF-8 Plain Text
Duration                                 : 55 min 5 s
Bit rate                                 : 158 b/s
Frame rate                               : 0.208 FPS
Count of elements                        : 689
Stream size                              : 64.1 KiB (0%)
Language                                 : Malayalam (IN)
Default                                  : No
Forced                                   : No

Text #25
ID                                       : 27
Format                                   : UTF-8
Codec ID                                 : S_TEXT/UTF8
Codec ID/Info                            : UTF-8 Plain Text
Duration                                 : 55 min 5 s
Bit rate                                 : 48 b/s
Frame rate                               : 0.208 FPS
Count of elements                        : 688
Stream size                              : 19.5 KiB (0%)
Language                                 : Malay (MY)
Default                                  : No
Forced                                   : No

Text #26
ID                                       : 28
Format                                   : UTF-8
Codec ID                                 : S_TEXT/UTF8
Codec ID/Info                            : UTF-8 Plain Text
Duration                                 : 55 min 5 s
Bit rate                                 : 50 b/s
Frame rate                               : 0.208 FPS
Count of elements                        : 688
Stream size                              : 20.4 KiB (0%)
Language                                 : Norwegian Bokmal (NO)
Default                                  : No
Forced                                   : No

Text #27
ID                                       : 29
Format                                   : UTF-8
Codec ID                                 : S_TEXT/UTF8
Codec ID/Info                            : UTF-8 Plain Text
Duration                                 : 55 min 5 s
Bit rate                                 : 48 b/s
Frame rate                               : 0.207 FPS
Count of elements                        : 683
Stream size                              : 19.6 KiB (0%)
Language                                 : Dutch (NL)
Default                                  : No
Forced                                   : No

Text #28
ID                                       : 30
Format                                   : UTF-8
Codec ID                                 : S_TEXT/UTF8
Codec ID/Info                            : UTF-8 Plain Text
Duration                                 : 55 min 5 s
Bit rate                                 : 46 b/s
Frame rate                               : 0.206 FPS
Count of elements                        : 682
Stream size                              : 18.9 KiB (0%)
Language                                 : Polish (PL)
Default                                  : No
Forced                                   : No

Text #29
ID                                       : 31
Format                                   : UTF-8
Codec ID                                 : S_TEXT/UTF8
Codec ID/Info                            : UTF-8 Plain Text
Duration                                 : 55 min 5 s
Bit rate                                 : 49 b/s
Frame rate                               : 0.208 FPS
Count of elements                        : 689
Stream size                              : 20.0 KiB (0%)
Title                                    : Brazilian
Language                                 : Portuguese (BR)
Default                                  : No
Forced                                   : No

Text #30
ID                                       : 32
Format                                   : UTF-8
Codec ID                                 : S_TEXT/UTF8
Codec ID/Info                            : UTF-8 Plain Text
Duration                                 : 55 min 5 s
Bit rate                                 : 55 b/s
Frame rate                               : 0.208 FPS
Count of elements                        : 688
Stream size                              : 22.4 KiB (0%)
Language                                 : Romanian (RO)
Default                                  : No
Forced                                   : No

Text #31
ID                                       : 33
Format                                   : UTF-8
Codec ID                                 : S_TEXT/UTF8
Codec ID/Info                            : UTF-8 Plain Text
Duration                                 : 55 min 5 s
Bit rate                                 : 82 b/s
Frame rate                               : 0.208 FPS
Count of elements                        : 689
Stream size                              : 33.2 KiB (0%)
Language                                 : Russian (RU)
Default                                  : No
Forced                                   : No

Text #32
ID                                       : 34
Format                                   : UTF-8
Codec ID                                 : S_TEXT/UTF8
Codec ID/Info                            : UTF-8 Plain Text
Duration                                 : 55 min 5 s
Bit rate                                 : 50 b/s
Frame rate                               : 0.209 FPS
Count of elements                        : 690
Stream size                              : 20.2 KiB (0%)
Language                                 : Swedish (SE)
Default                                  : No
Forced                                   : No

Text #33
ID                                       : 35
Format                                   : UTF-8
Codec ID                                 : S_TEXT/UTF8
Codec ID/Info                            : UTF-8 Plain Text
Duration                                 : 55 min 5 s
Bit rate                                 : 128 b/s
Frame rate                               : 0.208 FPS
Count of elements                        : 689
Stream size                              : 52.0 KiB (0%)
Language                                 : Tamil (IN)
Default                                  : No
Forced                                   : No

Text #34
ID                                       : 36
Format                                   : UTF-8
Codec ID                                 : S_TEXT/UTF8
Codec ID/Info                            : UTF-8 Plain Text
Duration                                 : 55 min 5 s
Bit rate                                 : 118 b/s
Frame rate                               : 0.209 FPS
Count of elements                        : 690
Stream size                              : 47.9 KiB (0%)
Language                                 : Telugu (IN)
Default                                  : No
Forced                                   : No

Text #35
ID                                       : 37
Format                                   : UTF-8
Codec ID                                 : S_TEXT/UTF8
Codec ID/Info                            : UTF-8 Plain Text
Duration                                 : 55 min 5 s
Bit rate                                 : 136 b/s
Frame rate                               : 0.208 FPS
Count of elements                        : 689
Stream size                              : 55.3 KiB (0%)
Language                                 : Thai (TH)
Default                                  : No
Forced                                   : No

Text #36
ID                                       : 38
Format                                   : UTF-8
Codec ID                                 : S_TEXT/UTF8
Codec ID/Info                            : UTF-8 Plain Text
Duration                                 : 55 min 5 s
Bit rate                                 : 51 b/s
Frame rate                               : 0.208 FPS
Count of elements                        : 689
Stream size                              : 20.8 KiB (0%)
Language                                 : Turkish (TR)
Default                                  : No
Forced                                   : No

Text #37
ID                                       : 39
Format                                   : UTF-8
Codec ID                                 : S_TEXT/UTF8
Codec ID/Info                            : UTF-8 Plain Text
Duration                                 : 55 min 5 s
Bit rate                                 : 76 b/s
Frame rate                               : 0.208 FPS
Count of elements                        : 689
Stream size                              : 31.0 KiB (0%)
Title                                    : Ukraine
Language                                 : Ukrainian (UA)
Default                                  : No
Forced                                   : No

Text #38
ID                                       : 40
Format                                   : UTF-8
Codec ID                                 : S_TEXT/UTF8
Codec ID/Info                            : UTF-8 Plain Text
Duration                                 : 55 min 5 s
Bit rate                                 : 64 b/s
Frame rate                               : 0.208 FPS
Count of elements                        : 688
Stream size                              : 26.1 KiB (0%)
Title                                    : Vietnam
Language                                 : Vietnamese (VN)
Default                                  : No
Forced                                   : No

Text #39
ID                                       : 41
Format                                   : UTF-8
Codec ID                                 : S_TEXT/UTF8
Codec ID/Info                            : UTF-8 Plain Text
Duration                                 : 54 min 8 s
Bit rate                                 : 49 b/s
Frame rate                               : 0.212 FPS
Count of elements                        : 688
Stream size                              : 19.7 KiB (0%)
Title                                    : Simplified
Language                                 : Chinese (Simplified)
Default                                  : No
Forced                                   : No

Text #40
ID                                       : 42
Format                                   : UTF-8
Codec ID                                 : S_TEXT/UTF8
Codec ID/Info                            : UTF-8 Plain Text
Duration                                 : 55 min 5 s
Bit rate                                 : 45 b/s
Frame rate                               : 0.208 FPS
Count of elements                        : 689
Stream size                              : 18.2 KiB (0%)
Title                                    : Traditional
Language                                 : Chinese (Traditional)
Default                                  : No
Forced                                   : No

Menu
00:00:00.000                             : en:Studio Logo
00:00:06.000                             : en:Scene 1
00:02:18.000                             : en:Opening Credits
00:02:21.000                             : en:Scene 2
00:02:31.000                             : en:Scene 3
00:04:20.000                             : en:Scene 4
00:05:46.000                             : en:Scene 5
00:08:32.000                             : en:Scene 6
00:09:51.000                             : en:Scene 7
00:12:47.000                             : en:Scene 8
00:15:54.000                             : en:Scene 9
00:16:30.000                             : en:Scene 10
00:19:34.000                             : en:Scene 11
00:22:08.000                             : en:Scene 12
00:23:32.000                             : en:Scene 13
00:27:09.000                             : en:Scene 14
00:31:36.000                             : en:Scene 15
00:33:03.000                             : en:Scene 16
00:36:57.000                             : en:Scene 17
00:37:02.000                             : en:Scene 18
00:39:53.000                             : en:Scene 19
00:41:05.000                             : en:Scene 20
00:43:48.000                             : en:Scene 21
00:46:23.000                             : en:Scene 22
00:49:37.000                             : en:Scene 23
00:50:34.000                             : en:Scene 24
00:53:46.000                             : en:Scene 25
00:55:31.000                             : en:End Credits



Download
File Container: MKV
Video/Audio Codec: H264 (HIGH) EAC3
Video Resolution: 1280x688
Please Login to post a comment.
If you don't have any account, please Register.
  • Subscribe my Feeds
  • Facebook
Encoding Queue:  x264  x265

Latest Episodes

Popular Movies and TV Shows

  • Columbia: The Final Flight
  • NCIS: Hawai'i
  • Dune: Part Two
  • Blue Lights
  • The 100th: Billy Joel at Madison Square Garden - The Greatest Arena Run of All Time
  • Killer Fortune Teller
  • The Gentlemen
  • Family Guy
  • Bob Hearts Abishola
  • Hundreds of Beavers
  • Still: A Michael J. Fox Movie
  • Money Talks
  • The Sympathizer
  • Tracker
  • The Great North
  • Model House
  • Abba: How They Won Eurovision
  • Kurt Cobain: Moments That Shook Music
  • When Calls the Heart
  • Sullivan's Crossing
  • Beacon 23
  • The Channel
  • The Batman vs. Dracula
  • There's Still Tomorrow
  • Fallout

Recent Comments

  • Bud:

    Are you ever going to put up Thursday's episode with Liev Schreiber?

  • alp-engin:

    When will that maintenance be over? Please...

  • mentalityx:

    Rad bloke

  • DownloadHostInspector:

    so far these RMTeam uploads always have a working link. DownloadHostInspector approved!

  • DownloadHostInspector:

    ah yes, this upload has a host that works. clicknupload. DownloadHostInspector approved!

  • DownloadHostInspector: Why are all the download hosts trash? none of them let you download it
  • Qua4ratic:

    clicknupload link plz

  • ppoo:

    Please, can you add "Real Time with Bill Maher S22E11" ??

  • theahtisham:

    Kindly upload Ep. 3 and 4 as well.

Archives