Sign Up   |   Sign In  

Announcements

Want to support us?
Buy a RapidRAR account from our resellers:
Buy or renew a NitroFlare account via THIS LINK

04/19

2017

No

Comments

Famous in Love S01E03 WEBRip x264-RARBG
[RR/NF/UL/OL/OLw/UR/CU]
Size: 368MB mp4 H264 (HIGH) (AVC1) / AAC (LC) (MP4A) 720x400

Famous in Love
Click on the image to see full size
[RR/NF/UL/OL/OLw/UR/CU] Famous in Love S01E03 WEBRip x264-RARBG (368MB) - Snapshot 1[RR/NF/UL/OL/OLw/UR/CU] Famous in Love S01E03 WEBRip x264-RARBG (368MB) - Snapshot 2
File Information
[URL]http://www.imdb.com/title/tt4578474/[/URL]
[screenshots]
[URL=http://imagecurl.com/viewer.php?file=36937664723050792567.png][IMG]http://imagecurl.com/images/36937664723050792567_thumb.png[/IMG][/URL]
[URL=http://imagecurl.com/viewer.php?file=03337766512103498811.png][IMG]http://imagecurl.com/images/03337766512103498811_thumb.png[/IMG][/URL]
[URL=http://imagecurl.com/viewer.php?file=97549877276403992536.png][IMG]http://imagecurl.com/images/97549877276403992536_thumb.png[/IMG][/URL]
[URL=http://imagecurl.com/viewer.php?file=07654399354377779490.png][IMG]http://imagecurl.com/images/07654399354377779490_thumb.png[/IMG][/URL]

[/screenshots]


[mediainfo]
Video
ID                                       : 1
Format                                   : AVC
Format/Info                              : Advanced Video Codec
Format profile                           : [email protected]
Format settings, CABAC                   : Yes
Format settings, ReFrames                : 5 frames
Codec ID                                 : avc1
Codec ID/Info                            : Advanced Video Coding
Duration                                 : 42mn 7s
Bit rate                                 : 1 100 Kbps
Width                                    : 720 pixels
Height                                   : 400 pixels
Display aspect ratio                     : 16:9
Frame rate mode                          : Constant
Frame rate                               : 23.976 (24000/1001) fps
Color space                              : YUV
Chroma subsampling                       : 4:2:0
Bit depth                                : 8 bits
Scan type                                : Progressive
Bits/(Pixel*Frame)                       : 0.159
Stream size                              : 328 MiB (89%)
Title                                    : RARBG.COM - Famous.in.Love.S01E03.WEBRip.x264-RARBG
Writing library                          : x264 core 148 r2597M e86f3a1
 Encoding settings                        : cabac=1 / ref=5 / deblock=1:-1:-1 / analyse=0x3:0x113 / me=umh / subme=9 / psy=1 / psy_rd=1.00:0.15 / mixed_ref=1 / me_range=16 / chroma_me=1 / trellis=2 / 8x8dct=1 / cqm=0 / deadz / fast pskip=1 / chroma_qp_offset=-3 / threads=12 / lookahead_threads=1 / sliced_threads=0 / nr=0 / decimate=1 / interlaced=0 / bluray_compat=0 / c / bframes=3 / b_pyramid=2 / b_adapt=2 / b_bias=0 / direct=3 / weightb=1 / open_gop=0 / weightp=2 / keyint=250 / keyint_min=23 / scenecut=40 / intra_refresh=0 / rc_lookahead=50 / rc=abr / mbtree=1 / bitrate=1100 / ratetol=1.0 / qcomp=0.60 / qpmin=0 / qpmax=69 / qpstep=4 / ip_ratio=1.40 / aq=1:1.00
Language                                 : English
Encoded date                             : UTC 2017-04-19 06:42:23
Tagged date                              : UTC 2017-04-19 06:42:23

Audio
ID                                       : 2
Format                                   : AAC
Format/Info                              : Advanced Audio Codec
Format profile                           : LC
Codec ID                                 : 40
Duration                                 : 42mn 7s
Bit rate mode                            : Constant
Bit rate                                 : 128 Kbps
Channel(s)                               : 2 channels
Channel positions                        : Front: L R
Sampling rate                            : 48.0 KHz
Frame rate                               : 46.875 fps (1024 spf)
Compression mode                         : Lossy
Stream size                              : 38.6 MiB (10%)
Title                                    : RARBG.COM - Famous.in.Love.S01E03.WEBRip.x264-RARBG
Language                                 : English
Default                                  : Yes
Alternate group                          : 1
Encoded date                             : UTC 2017-04-19 06:42:23
Tagged date                              : UTC 2017-04-19 06:42:23



[/mediainfo]
Download
File Container: MP4
Video/Audio Codec: H264 (HIGH) (AVC1) AAC (LC) (MP4A)
Video Resolution: 720x400
 
 
 
 
 
 
Watch Online [MP4]

Show us some love

Leave a Comment

  • (never displayed)
  •  
        Members don't see captchas. Sign Up / Sign In
  • Notify me via email when someone responds.
  • Subscribe my Feeds
  • Facebook

Latest Episodes

Popular Movies and TV Shows

  • The Flash
  • Agents of S.H.I.E.L.D.
  • iZombie
  • Fifty Shades Darker
  • Brooklyn Nine-Nine
  • The Mick
  • Prison Break: Sequel
  • The Void
  • Little Deaths
  • Miekkailija
  • Better Call Saul
  • Gotham
  • Supergirl
  • Umi ga kikoeru
  • After the Reality
  • Lulu
  • Taken
  • Quantico
  • Bates Motel
  • The Shape of Things
  • The Legend of Ben Hall
  • Wolves at the Door
  • Into the Badlands
  • Silicon Valley
  • Elementary

Recent Comments

  • CZAR:

    Subtitle @
    https://subscene.com/subtitles/boy-missing-secuestro/english/1480900

  • emptychorus:

    Does anyone have a logoless version?

  • jwill758:

    Could you reup this once more please ?

  • Champ45:

    Ya this is the bestvdute in ttecejfjd always ya haystack

  • Vamps: @AdminJust checked back for a Webrip for "Mom" s04e19, just one "Mom S04E19 720p WEB ...
  • thaone:

    Thanks

  • thaone:

    Thanks

  • thaone:

    Thanks

  • thaone:

    Thanks

  • thaone:

    Thanks