Sign Up   |   Sign In  

Announcements

Want to support us?
Buy a RapidRAR account from our resellers:
Buy or renew a NitroFlare account via THIS LINK

04/19

2017

No

Comments

Famous in Love S01E09 WEBRip x264-RARBG
[RR/NF/UL/OL/OLw/UR/CU]
Size: 382MB mp4 H264 (HIGH) (AVC1) / AAC (LC) (MP4A) 720x400

Famous in Love
Click on the image to see full size
[RR/NF/UL/OL/OLw/UR/CU] Famous in Love S01E09 WEBRip x264-RARBG (382MB) - Snapshot 1[RR/NF/UL/OL/OLw/UR/CU] Famous in Love S01E09 WEBRip x264-RARBG (382MB) - Snapshot 2
File Information
[URL]http://www.imdb.com/title/tt4578474/[/URL]
[screenshots]
[URL=http://imagecurl.com/viewer.php?file=21578498613418724648.png][IMG]http://imagecurl.com/images/21578498613418724648_thumb.png[/IMG][/URL]
[URL=http://imagecurl.com/viewer.php?file=68757720810600666950.png][IMG]http://imagecurl.com/images/68757720810600666950_thumb.png[/IMG][/URL]
[URL=http://imagecurl.com/viewer.php?file=02722655366398819589.png][IMG]http://imagecurl.com/images/02722655366398819589_thumb.png[/IMG][/URL]
[URL=http://imagecurl.com/viewer.php?file=44447375742997169061.png][IMG]http://imagecurl.com/images/44447375742997169061_thumb.png[/IMG][/URL]

[/screenshots]


[mediainfo]
Video
ID                                       : 1
Format                                   : AVC
Format/Info                              : Advanced Video Codec
Format profile                           : [email protected]
Format settings, CABAC                   : Yes
Format settings, ReFrames                : 5 frames
Codec ID                                 : avc1
Codec ID/Info                            : Advanced Video Coding
Duration                                 : 42mn 47s
Bit rate                                 : 1 100 Kbps
Width                                    : 720 pixels
Height                                   : 400 pixels
Display aspect ratio                     : 16:9
Frame rate mode                          : Constant
Frame rate                               : 23.976 (24000/1001) fps
Color space                              : YUV
Chroma subsampling                       : 4:2:0
Bit depth                                : 8 bits
Scan type                                : Progressive
Bits/(Pixel*Frame)                       : 0.159
Stream size                              : 341 MiB (89%)
Title                                    : RARBG.COM - Famous.in.Love.S01E09.WEBRip.x264-RARBG
Writing library                          : x264 core 148 r2597M e86f3a1
 Encoding settings                        : cabac=1 / ref=5 / deblock=1:-1:-1 / analyse=0x3:0x113 / me=umh / subme=9 / psy=1 / psy_rd=1.00:0.15 / mixed_ref=1 / me_range=16 / chroma_me=1 / trellis=2 / 8x8dct=1 / cqm=0 / deadz / fast pskip=1 / chroma_qp_offset=-3 / threads=12 / lookahead_threads=1 / sliced_threads=0 / nr=0 / decimate=1 / interlaced=0 / bluray_compat=0 / c / bframes=3 / b_pyramid=2 / b_adapt=2 / b_bias=0 / direct=3 / weightb=1 / open_gop=0 / weightp=2 / keyint=250 / keyint_min=23 / scenecut=40 / intra_refresh=0 / rc_lookahead=50 / rc=abr / mbtree=1 / bitrate=1100 / ratetol=1.0 / qcomp=0.60 / qpmin=0 / qpmax=69 / qpstep=4 / ip_ratio=1.40 / aq=1:1.00
Language                                 : English
Encoded date                             : UTC 2017-04-19 14:08:22
Tagged date                              : UTC 2017-04-19 14:08:22

Audio
ID                                       : 2
Format                                   : AAC
Format/Info                              : Advanced Audio Codec
Format profile                           : LC
Codec ID                                 : 40
Duration                                 : 42mn 47s
Bit rate mode                            : Constant
Bit rate                                 : 128 Kbps
Channel(s)                               : 2 channels
Channel positions                        : Front: L R
Sampling rate                            : 48.0 KHz
Frame rate                               : 46.875 fps (1024 spf)
Compression mode                         : Lossy
Stream size                              : 39.2 MiB (10%)
Title                                    : RARBG.COM - Famous.in.Love.S01E09.WEBRip.x264-RARBG
Language                                 : English
Default                                  : Yes
Alternate group                          : 1
Encoded date                             : UTC 2017-04-19 14:08:22
Tagged date                              : UTC 2017-04-19 14:08:22



[/mediainfo]
Download
File Container: MP4
Video/Audio Codec: H264 (HIGH) (AVC1) AAC (LC) (MP4A)
Video Resolution: 720x400
 
 
 
 
 
 
Watch Online [MP4]

Show us some love

Leave a Comment

  • (never displayed)
  •  
        Members don't see captchas. Sign Up / Sign In
  • Notify me via email when someone responds.
  • Subscribe my Feeds
  • Facebook

Latest Episodes

Popular Movies and TV Shows

  • Bloodline
  • Doctor Who
  • 12 Monkeys
  • Naked Ambition: An R Rated Look at an X Rated Industry
  • Queen Rock Montreal & Live Aid
  • The Northlander
  • Neon Joe, Werewolf Hunter
  • The Handmaid's Tale
  • An Unfinished Life
  • The Americans
  • Ma vie de Courgette
  • John Wick: Chapter 2
  • Colossal
  • Hinterland
  • A Cure for Wellness
  • T2 Trainspotting
  • Clique
  • The Late Show with Stephen Colbert
  • War Machine
  • Black Widows
  • Jamestown
  • The Last Word
  • Logan
  • Vixen
  • Arrow

Recent Comments

  • nunya: Big, big thank you to whoever created this. HD rips are well and good but they're unnecessary for a ...
  • simondsen: Never understood why Femme is singular and Fatales is plural. Bad knowledge of French by the authors...
  • sebus:

    https://www.dailymotion.com/video/x5lnrsj

  • feds:

    Awww, no English Subtitles for the Hearing Impaired? smh

  • peyman usa:

    CHILD OF SATAN 2017 1080P BLURAY DD5.1 HEVC X265-RMTEAM while
    2CH 5.1 is not

  • thaone:

    Thank you

  • thaone:

    Thank you

  • thaone:

    Thank you

  • thaone:

    Thank you

  • thaone:

    Thank you