Sign Up   |   Sign In  

Announcements

Want to support us?
Buy a RapidRAR account from our resellers:
Buy or renew a NitroFlare account via THIS LINK

04/21

2017

No

Comments

Fargo S03E01 1080p WEB-DL DD5 1 H264-RARBG
[RR/NF/UL/UR]
Size: 2.3GB mkv H264 (HIGH) / AC3  HD  1920x952

Fargo
Click on the image to see full size
[RR/NF/UL/UR] Fargo S03E01 1080p WEB-DL DD5 1 H264-RARBG (2.3GB) - Snapshot 1
File Information
[URL=http://imagecurl.com/viewer.php?file=12394984416804105183.png][IMG]http://imagecurl.com/images/12394984416804105183_thumb.png[/IMG][/URL]
[URL=http://imagecurl.com/viewer.php?file=03946810292506428288.png][IMG]http://imagecurl.com/images/03946810292506428288_thumb.png[/IMG][/URL]
[URL=http://imagecurl.com/viewer.php?file=10261591470371952331.png][IMG]http://imagecurl.com/images/10261591470371952331_thumb.png[/IMG][/URL]
[URL=http://imagecurl.com/viewer.php?file=01366847762194364930.png][IMG]http://imagecurl.com/images/01366847762194364930_thumb.png[/IMG][/URL]
[URL=http://imagecurl.com/viewer.php?file=50515494532972582046.png][IMG]http://imagecurl.com/images/50515494532972582046_thumb.png[/IMG][/URL]
[URL=http://imagecurl.com/viewer.php?file=02584427183493122473.png][IMG]http://imagecurl.com/images/02584427183493122473_thumb.png[/IMG][/URL]



[mediainfo]
Video
ID                                       : 1
Format                                   : AVC
Format/Info                              : Advanced Video Codec
Format profile                           : [email protected]
Format settings, CABAC                   : Yes
Format settings, ReFrames                : 4 frames
Codec ID                                 : V_MPEG4/ISO/AVC
Duration                                 : 1h 6mn
Bit rate                                 : 4 486 Kbps
Width                                    : 1 920 pixels
Height                                   : 952 pixels
Display aspect ratio                     : 2.017
Frame rate mode                          : Constant
Frame rate                               : 23.976 (24000/1001) fps
Color space                              : YUV
Chroma subsampling                       : 4:2:0
Bit depth                                : 8 bits
Scan type                                : Progressive
Bits/(Pixel*Frame)                       : 0.102
Stream size                              : 2.08 GiB (90%)
Title                                    : Fargo.S03E01.1080p.WEB-DL.DD5.1.H264-RARBG
Language                                 : English
Default                                  : Yes
Forced                                   : No
Color range                              : Limited
Color primaries                          : BT.709
Transfer characteristics                 : BT.709
Matrix coefficients                      : BT.709

Audio
ID                                       : 2
Format                                   : AC-3
Format/Info                              : Audio Coding 3
Mode extension                           : CM (complete main)
Format settings, Endianness              : Big
Codec ID                                 : A_AC3
Duration                                 : 1h 6mn
Bit rate mode                            : Constant
Bit rate                                 : 384 Kbps
Channel(s)                               : 6 channels
Channel positions                        : Front: L C R, Side: L R, LFE
Sampling rate                            : 48.0 KHz
Frame rate                               : 31.250 fps (1536 spf)
Compression mode                         : Lossy
Stream size                              : 183 MiB (8%)
Title                                    : Fargo.S03E01.1080p.WEB-DL.DD5.1.H264-RARBG
Language                                 : English
Default                                  : Yes
Forced                                   : No

Text #1
ID                                       : 3
Format                                   : UTF-8
Codec ID                                 : S_TEXT/UTF8
Codec ID/Info                            : UTF-8 Plain Text
Language                                 : English
Default                                  : Yes
Forced                                   : No

Text #2
ID                                       : 4
Format                                   : UTF-8
Codec ID                                 : S_TEXT/UTF8
Codec ID/Info                            : UTF-8 Plain Text
Title                                    : SDH
Language                                 : English
Default                                  : No
Forced                                   : No



[/mediainfo]
Download
File Container: MKV
Video/Audio Codec: H264 (HIGH) AC3
Video Resolution: 1920x952
 
 
 
 

Show us some love

Leave a Comment

  • (never displayed)
  •  
        Members don't see captchas. Sign Up / Sign In
  • Notify me via email when someone responds.
  • Subscribe my Feeds
  • Facebook

Latest Episodes

Popular Movies and TV Shows

  • Roman Empire: Reign of Blood
  • Gotham
  • Supergirl
  • Sea Rex 3D: Journey to a Prehistoric World
  • Homo sapiens
  • Two Hands
  • Better Call Saul
  • Quantico
  • Bates Motel
  • Fifty Shades Darker
  • Lulu
  • Koyaanisqatsi
  • Taken
  • A.P.B.
  • Dimension 404
  • After the Reality
  • Wolves at the Door
  • The Shape of Things
  • Outcast
  • Into the Badlands
  • Jane the Virgin
  • The Legend of Ben Hall
  • Logan
  • Legends of the Hidden Temple
  • Silicon Valley

Recent Comments

  • tchamast:

    Any chance for HEVCs of these? Thanks!

  • D3m0N81:

    Student (2016) - Can't locate English subtitles for this film. :-(

  • Alexander Ipfelkofer:

    waiting for last nights Monday Nights RAW

  • Buckshot:

    What is your touring schedule?

  • MahBoff:

    Thaynk yewwwwwww! :)

  • Vamps: AHHHHH, THANK YOU for the very informative explanation, that was awesome. Even included an answer t...
  • MahBoff:

    @admin: Is there going to be an RMT webrip in 720/265? Thanks!

  • MahBoff:

    TYSM for the webrip in 720/265!

  • korno:

    Reup pls

  • b007:

    Thank you for another great upload.