Sign Up   |   Sign In  

Announcements

Want to support us?
Buy a RapidRAR account from our resellers:
Buy or renew a NitroFlare account via THIS LINK

04/21

2017

1

Comments

Fargo S03E01 720p WEB-DL DD5 1 H264-RARBG
[RR/NF/UL/UR]
Size: 2.1GB mkv H264 (HIGH) / AC3  HD  1280x634

Fargo
Click on the image to see full size
[RR/NF/UL/UR] Fargo S03E01 720p WEB-DL DD5 1 H264-RARBG (2.1GB) - Snapshot 1
File Information
[URL=http://imagecurl.com/viewer.php?file=41997877135335762442.png][IMG]http://imagecurl.com/images/41997877135335762442_thumb.png[/IMG][/URL]
[URL=http://imagecurl.com/viewer.php?file=43802852348206686114.png][IMG]http://imagecurl.com/images/43802852348206686114_thumb.png[/IMG][/URL]
[URL=http://imagecurl.com/viewer.php?file=47306411804118382315.png][IMG]http://imagecurl.com/images/47306411804118382315_thumb.png[/IMG][/URL]
[URL=http://imagecurl.com/viewer.php?file=43942289771383422732.png][IMG]http://imagecurl.com/images/43942289771383422732_thumb.png[/IMG][/URL]
[URL=http://imagecurl.com/viewer.php?file=21673396062327691405.png][IMG]http://imagecurl.com/images/21673396062327691405_thumb.png[/IMG][/URL]
[URL=http://imagecurl.com/viewer.php?file=23241787232298275301.png][IMG]http://imagecurl.com/images/23241787232298275301_thumb.png[/IMG][/URL]



[mediainfo]
Video
ID                                       : 1
Format                                   : AVC
Format/Info                              : Advanced Video Codec
Format profile                           : [email protected]
Format settings, CABAC                   : No
Format settings, ReFrames                : 2 frames
Codec ID                                 : V_MPEG4/ISO/AVC
Duration                                 : 1h 6mn
Bit rate                                 : 4 025 Kbps
Width                                    : 1 280 pixels
Height                                   : 634 pixels
Display aspect ratio                     : 2.019
Frame rate mode                          : Constant
Frame rate                               : 23.976 (24000/1001) fps
Color space                              : YUV
Chroma subsampling                       : 4:2:0
Bit depth                                : 8 bits
Scan type                                : Progressive
Bits/(Pixel*Frame)                       : 0.207
Stream size                              : 1.87 GiB (89%)
Title                                    : Fargo.S03E01.720p.WEB-DL.DD5.1.H264-RARBG
Language                                 : English
Default                                  : Yes
Forced                                   : No
Color range                              : Limited
Color primaries                          : BT.709
Transfer characteristics                 : BT.709
Matrix coefficients                      : BT.709

Audio
ID                                       : 2
Format                                   : AC-3
Format/Info                              : Audio Coding 3
Mode extension                           : CM (complete main)
Format settings, Endianness              : Big
Codec ID                                 : A_AC3
Duration                                 : 1h 6mn
Bit rate mode                            : Constant
Bit rate                                 : 384 Kbps
Channel(s)                               : 6 channels
Channel positions                        : Front: L C R, Side: L R, LFE
Sampling rate                            : 48.0 KHz
Frame rate                               : 31.250 fps (1536 spf)
Compression mode                         : Lossy
Stream size                              : 183 MiB (9%)
Title                                    : Fargo.S03E01.720p.WEB-DL.DD5.1.H264-RARBG
Language                                 : English
Default                                  : Yes
Forced                                   : No

Text #1
ID                                       : 3
Format                                   : UTF-8
Codec ID                                 : S_TEXT/UTF8
Codec ID/Info                            : UTF-8 Plain Text
Language                                 : English
Default                                  : Yes
Forced                                   : No

Text #2
ID                                       : 4
Format                                   : UTF-8
Codec ID                                 : S_TEXT/UTF8
Codec ID/Info                            : UTF-8 Plain Text
Title                                    : SDH
Language                                 : English
Default                                  : No
Forced                                   : No



[/mediainfo]
Download
File Container: MKV
Video/Audio Codec: H264 (HIGH) AC3
Video Resolution: 1280x634
 
 
 
 

Show us some love

1 Response to "[RR/NF/UL/UR] Fargo S03E01 720p WEB-DL DD5 1 H264-RARBG (2.1GB)"
05/20/17
02:10:10
Admin

RapidRAR re-uploaded with new RAR file(s) (users who couldn't download some parts need to download all parts again).

Leave a Comment

  • (never displayed)
  •  
        Members don't see captchas. Sign Up / Sign In
  • Notify me via email when someone responds.
  • Subscribe my Feeds
  • Facebook

Latest Episodes

Popular Movies and TV Shows

  • Silicon Valley
  • The Leftovers
  • American Gods
  • Caligula's Spawn
  • Naked Ambition: An R Rated Look at an X Rated Industry
  • Are All Men Pedophiles?
  • Veep
  • Genius
  • The White Princess
  • Fallo!
  • MindGamers
  • Logan
  • Grantchester
  • The Durrells
  • The Handmaid's Tale
  • John Wick: Chapter 2
  • Pork Pie
  • The King's Case Note
  • Doctor Who
  • 12 Monkeys
  • Bloodline
  • Unforgiven
  • A Cure for Wellness
  • War Machine
  • The Northlander

Recent Comments

  • pickle:

    Why don't you use UL for FGT TV releases?

  • basiadora: The Openload link leads to mp4 watchable file, not to the mkv
  • basiadora:

    Thank you very much :)

  • thaone:

    Thanks

  • yana:

    ...no S2E1 yet? this sudden upload of S1 could leave one to think S2 came out?

  • CharMir:

    Any chance of a re-up, need a paid account for rapidrar.

  • rollo: still waiting for a 720p hevc x265 from The.Handmaids.Tale.S01E07.720p.WEBRip.x264-MOROSE please; li...
  • Z:

    Why don't you just use openload ^

  • ramirez_:

    can you re up links please

  • MahBoff:

    Could this please be uploaded to RapidRar?