Sign Up   |   Sign In  

Announcements

Want to support us?
Buy a RapidRAR account from our resellers:
Buy or renew a NitroFlare account via THIS LINK

04/21

2017

1

Comments

Fargo S03E01 WEB-DL x264-RARBG
[RR/NF/UL/OL/OLw/UR]
Size: 295MB mp4 H264 (HIGH) (AVC1) / AAC (LC) (MP4A) 720x358

Fargo
Click on the image to see full size
[RR/NF/UL/OL/OLw/UR] Fargo S03E01 WEB-DL x264-RARBG (295MB) - Snapshot 1[RR/NF/UL/OL/OLw/UR] Fargo S03E01 WEB-DL x264-RARBG (295MB) - Snapshot 2
File Information
[URL]http://www.imdb.com/title/tt2802850/[/URL]
[screenshots]
[URL=http://imagecurl.com/viewer.php?file=02077320128222638953.png][IMG]http://imagecurl.com/images/02077320128222638953_thumb.png[/IMG][/URL]
[URL=http://imagecurl.com/viewer.php?file=75597106906692068455.png][IMG]http://imagecurl.com/images/75597106906692068455_thumb.png[/IMG][/URL]
[URL=http://imagecurl.com/viewer.php?file=57927774549997801244.png][IMG]http://imagecurl.com/images/57927774549997801244_thumb.png[/IMG][/URL]
[URL=http://imagecurl.com/viewer.php?file=30308720291959182060.png][IMG]http://imagecurl.com/images/30308720291959182060_thumb.png[/IMG][/URL]
[URL=http://imagecurl.com/viewer.php?file=71265023778100796448.png][IMG]http://imagecurl.com/images/71265023778100796448_thumb.png[/IMG][/URL]

[/screenshots]


[mediainfo]
Video
ID                                       : 1
Format                                   : AVC
Format/Info                              : Advanced Video Codec
Format profile                           : [email protected]
Format settings, CABAC                   : Yes
Format settings, ReFrames                : 5 frames
Codec ID                                 : avc1
Codec ID/Info                            : Advanced Video Coding
Duration                                 : 1h 6mn
Bit rate                                 : 487 Kbps
Width                                    : 720 pixels
Height                                   : 358 pixels
Display aspect ratio                     : 2.019
Frame rate mode                          : Constant
Frame rate                               : 23.976 (24000/1001) fps
Color space                              : YUV
Chroma subsampling                       : 4:2:0
Bit depth                                : 8 bits
Scan type                                : Progressive
Bits/(Pixel*Frame)                       : 0.079
Stream size                              : 232 MiB (78%)
Title                                    : RARBG.COM - Fargo.S03E01.WEB-DL.x264-RARBG
Writing library                          : x264 core 148 r2597M e86f3a1
 Encoding settings                        : cabac=1 / ref=5 / deblock=1:-1:-1 / analyse=0x3:0x113 / me=umh / subme=9 / psy=1 / psy_rd=1.00:0.15 / mixed_ref=1 / me_range=16 / chroma_me=1 / trellis=2 / 8x8dct=1 / cqm=0 / deadz / fast pskip=1 / chroma_qp_offset=-3 / threads=11 / lookahead_threads=1 / sliced_threads=0 / nr=0 / decimate=1 / interlaced=0 / bluray_compat=0 / c / bframes=3 / b_pyramid=2 / b_adapt=2 / b_bias=0 / direct=3 / weightb=1 / open_gop=0 / weightp=2 / keyint=250 / keyint_min=23 / scenecut=40 / intra_refresh=0 / rc_lookahead=50 / rc=crf / mbtree=1 / crf=19.0 / qcomp=0.60 / qpmin=0 / qpmax=69 / qpstep=4 / ip_ratio=1.40 / aq=1:1.00
Language                                 : English
Encoded date                             : UTC 2017-04-21 11:33:39
Tagged date                              : UTC 2017-04-21 11:33:39

Audio
ID                                       : 2
Format                                   : AAC
Format/Info                              : Advanced Audio Codec
Format profile                           : LC
Codec ID                                 : 40
Duration                                 : 1h 6mn
Bit rate mode                            : Constant
Bit rate                                 : 128 Kbps
Channel(s)                               : 2 channels
Channel positions                        : Front: L R
Sampling rate                            : 48.0 KHz
Frame rate                               : 46.875 fps (1024 spf)
Compression mode                         : Lossy
Stream size                              : 60.9 MiB (21%)
Title                                    : RARBG.COM - Fargo.S03E01.WEB-DL.x264-RARBG
Language                                 : English
Default                                  : Yes
Alternate group                          : 1
Encoded date                             : UTC 2017-04-21 11:33:39
Tagged date                              : UTC 2017-04-21 11:33:39



[/mediainfo]
Download
File Container: MP4
Video/Audio Codec: H264 (HIGH) (AVC1) AAC (LC) (MP4A)
Video Resolution: 720x358
 
 
 
 
 
Watch Online [MP4]

Show us some love

1 Response to "[RR/NF/UL/OL/OLw/UR] Fargo S03E01 WEB-DL x264-RARBG (295MB)"
05/20/17
02:10:10
Admin

RapidRAR re-uploaded with new RAR file(s) (users who couldn't download some parts need to download all parts again).

Leave a Comment

  • (never displayed)
  •  
        Members don't see captchas. Sign Up / Sign In
  • Notify me via email when someone responds.
  • Subscribe my Feeds
  • Facebook

Latest Episodes

Popular Movies and TV Shows

  • Doctor Who
  • John Wick: Chapter 2
  • Naked Ambition: An R Rated Look at an X Rated Industry
  • Bedtime Stories
  • Bloodline
  • Clique
  • Ma vie de Courgette
  • Hinterland
  • Queen Rock Montreal & Live Aid
  • 12 Monkeys
  • Bunk'd
  • 84 Charing Cross Road
  • The Northlander
  • A Cure for Wellness
  • Colossal
  • Neon Joe, Werewolf Hunter
  • Vixen
  • The Late Show with Stephen Colbert
  • War Machine
  • Jamestown
  • The Last Word
  • The Ticket
  • Black Widows
  • Ancient Aliens
  • T2 Trainspotting

Recent Comments

  • HEVC lover: Admin could you please re-upload madam.secretary.s03e16.720p.hdtv.hevc.x265.rmteam at any other file...
  • RMTeam:

    Admin
    File Not Found http://rapidrar.com/7p4t5it63ib4
    please RapidRAR re-upload

  • Deltron 3030:

    any chance of an RMX avi encode of this episode?

  • b007:

    Thanks for finishing up this week's episodes. Very grateful.

  • Admin:

    Soon.

  • Admin:

    Sure, soon.

  • David-A-H:

    Thank you

  • David-A-H:

    Thank you

  • David-A-H:

    Thank you

  • David-A-H:

    Thank you