Sign Up   |   Sign In  

Announcements

Want to support us?
Buy a RapidRAR account from our resellers:
Buy or renew a NitroFlare account via THIS LINK

04/20

2017

1

Comments

Fargo S03E01 WEBRip X264-RARBG
[RR/NF/UL/OL/OLw/UR]
Size: 578MB mp4 H264 (HIGH) (AVC1) / AAC (LC) (MP4A) 720x362

Fargo
Click on the image to see full size
[RR/NF/UL/OL/OLw/UR] Fargo S03E01 WEBRip X264-RARBG (578MB) - Snapshot 1[RR/NF/UL/OL/OLw/UR] Fargo S03E01 WEBRip X264-RARBG (578MB) - Snapshot 2
File Information
[URL]http://www.imdb.com/title/tt2802850/[/URL]
[screenshots]
[URL=http://imagecurl.com/viewer.php?file=23868680577616887759.png][IMG]http://imagecurl.com/images/23868680577616887759_thumb.png[/IMG][/URL]
[URL=http://imagecurl.com/viewer.php?file=20358264378133391208.png][IMG]http://imagecurl.com/images/20358264378133391208_thumb.png[/IMG][/URL]
[URL=http://imagecurl.com/viewer.php?file=59142841295788755130.png][IMG]http://imagecurl.com/images/59142841295788755130_thumb.png[/IMG][/URL]
[URL=http://imagecurl.com/viewer.php?file=76639729048212848708.png][IMG]http://imagecurl.com/images/76639729048212848708_thumb.png[/IMG][/URL]
[URL=http://imagecurl.com/viewer.php?file=23152153566646699194.png][IMG]http://imagecurl.com/images/23152153566646699194_thumb.png[/IMG][/URL]

[/screenshots]


[mediainfo]
Video
ID                                       : 1
Format                                   : AVC
Format/Info                              : Advanced Video Codec
Format profile                           : [email protected]
Format settings, CABAC                   : Yes
Format settings, ReFrames                : 5 frames
Codec ID                                 : avc1
Codec ID/Info                            : Advanced Video Coding
Duration                                 : 1h 6mn
Bit rate                                 : 1 100 Kbps
Width                                    : 720 pixels
Height                                   : 362 pixels
Display aspect ratio                     : 1.995
Original display aspect ratio            : 1.996
Frame rate mode                          : Constant
Frame rate                               : 23.976 (24000/1001) fps
Color space                              : YUV
Chroma subsampling                       : 4:2:0
Bit depth                                : 8 bits
Scan type                                : Progressive
Bits/(Pixel*Frame)                       : 0.176
Stream size                              : 515 MiB (89%)
Title                                    : RARBG.COM - Fargo.S03E01.WEBRip.X264-RARBG
Writing library                          : x264 core 148 r2597M e86f3a1
 Encoding settings                        : cabac=1 / ref=5 / deblock=1:-1:-1 / analyse=0x3:0x113 / me=umh / subme=9 / psy=1 / psy_rd=1.00:0.15 / mixed_ref=1 / me_range=16 / chroma_me=1 / trellis=2 / 8x8dct=1 / cqm=0 / deadz / fast pskip=1 / chroma_qp_offset=-3 / threads=11 / lookahead_threads=1 / sliced_threads=0 / nr=0 / decimate=1 / interlaced=0 / bluray_compat=0 / c / bframes=3 / b_pyramid=2 / b_adapt=2 / b_bias=0 / direct=3 / weightb=1 / open_gop=0 / weightp=2 / keyint=250 / keyint_min=23 / scenecut=40 / intra_refresh=0 / rc_lookahead=50 / rc=abr / mbtree=1 / bitrate=1100 / ratetol=1.0 / qcomp=0.60 / qpmin=0 / qpmax=69 / qpstep=4 / ip_ratio=1.40 / aq=1:1.00
Language                                 : English
Encoded date                             : UTC 2017-04-20 16:06:41
Tagged date                              : UTC 2017-04-20 16:06:41

Audio
ID                                       : 2
Format                                   : AAC
Format/Info                              : Advanced Audio Codec
Format profile                           : LC
Codec ID                                 : 40
Duration                                 : 1h 6mn
Bit rate mode                            : Constant
Bit rate                                 : 128 Kbps
Channel(s)                               : 2 channels
Channel positions                        : Front: L R
Sampling rate                            : 48.0 KHz
Frame rate                               : 46.875 fps (1024 spf)
Compression mode                         : Lossy
Stream size                              : 60.9 MiB (11%)
Title                                    : RARBG.COM - Fargo.S03E01.WEBRip.X264-RARBG
Language                                 : English
Default                                  : Yes
Alternate group                          : 1
Encoded date                             : UTC 2017-04-20 16:06:41
Tagged date                              : UTC 2017-04-20 16:06:41



[/mediainfo]
Download
File Container: MP4
Video/Audio Codec: H264 (HIGH) (AVC1) AAC (LC) (MP4A)
Video Resolution: 720x362
 
 
 
 
 
Watch Online [MP4]

Show us some love

1 Response to "[RR/NF/UL/OL/OLw/UR] Fargo S03E01 WEBRip X264-RARBG (578MB)"
05/20/17
02:10:11
Admin

RapidRAR re-uploaded with new RAR file(s) (users who couldn't download some parts need to download all parts again).

Leave a Comment

  • (never displayed)
  •  
        Members don't see captchas. Sign Up / Sign In
  • Notify me via email when someone responds.
  • Subscribe my Feeds
  • Facebook

Latest Episodes

Popular Movies and TV Shows

  • Silicon Valley
  • The Leftovers
  • American Gods
  • Caligula's Spawn
  • Naked Ambition: An R Rated Look at an X Rated Industry
  • Are All Men Pedophiles?
  • Veep
  • Genius
  • The White Princess
  • Fallo!
  • MindGamers
  • Logan
  • Grantchester
  • The Durrells
  • The Handmaid's Tale
  • John Wick: Chapter 2
  • Pork Pie
  • The King's Case Note
  • Doctor Who
  • 12 Monkeys
  • Bloodline
  • Unforgiven
  • A Cure for Wellness
  • War Machine
  • The Northlander

Recent Comments

  • pickle:

    Why don't you use UL for FGT TV releases?

  • basiadora: The Openload link leads to mp4 watchable file, not to the mkv
  • basiadora:

    Thank you very much :)

  • thaone:

    Thanks

  • yana:

    ...no S2E1 yet? this sudden upload of S1 could leave one to think S2 came out?

  • CharMir:

    Any chance of a re-up, need a paid account for rapidrar.

  • rollo: still waiting for a 720p hevc x265 from The.Handmaids.Tale.S01E07.720p.WEBRip.x264-MOROSE please; li...
  • Z:

    Why don't you just use openload ^

  • ramirez_:

    can you re up links please

  • MahBoff:

    Could this please be uploaded to RapidRar?