Sign Up   |   Sign In  
ShogunImmaculateSweet DreamsThe Deadly SwarmThe NeighborhoodFriends Like HerNCISNCIS: Hawai'iJimmy Carr: Natural Born KillerCtrl+Alt+DesireProject DorothySpring LakesAll AmericanFamily GuyThe SympathizerDune: Part TwoThe 100th: Billy Joel at Madison Square Garden - The Greatest Arena Run of All TimeThe Crow: SalvationTrackerThe Great NorthHundreds of BeaversThe Bold and the BeautifulModel HouseAbba: How They Won EurovisionFallout

Announcements

02/16

2024

No

Comments

FBI International S03E01 June 720p AMZN WEB-DL DDP5 1 H 264-NTb
[RR/NF/CU]
Size: 1GB mkv H264 (HIGH) / EAC3  HD  1280x720

FBI: International
File Information
[img]http://lookpic.com/cdn/i2/t/0215202416390814-1.jpg[/img]
[img]http://lookpic.com/cdn/i2/t/0215202416390814-2.jpg[/img]
[img]http://lookpic.com/cdn/i2/t/0215202416390814-3.jpg[/img]

General
Unique ID                                : 309210056390739707658785302669919635461 (0xE89FB0CFCE304D11628B1E5B5FA1C805)
Complete name                            : FBI.International.S03E01.June.720p.AMZN.WEB-DL.DDP5.1.H.264-NTb.mkv
Format                                   : Matroska
Format version                           : Version 4
File size                                : 1.00 GiB
Duration                                 : 41 min 11 s
Overall bit rate                         : 3 480 kb/s
Frame rate                               : 23.976 FPS
Writing application                      : mkvmerge v81.0 ('Milliontown') 64-bit
Writing library                          : libebml v1.4.4 + libmatroska v1.7.1

Video
ID                                       : 1
Format                                   : AVC
Format/Info                              : Advanced Video Codec
Format profile                           : High@L3.1
Format settings                          : CABAC / 4 Ref Frames
Format settings, CABAC                   : Yes
Format settings, Reference frames        : 4 frames
Codec ID                                 : V_MPEG4/ISO/AVC
Duration                                 : 41 min 11 s
Bit rate mode                            : Constant
Bit rate                                 : 2 838 kb/s
Nominal bit rate                         : 4 000 kb/s
Width                                    : 1 280 pixels
Height                                   : 720 pixels
Display aspect ratio                     : 16:9
Frame rate mode                          : Constant
Frame rate                               : 23.976 (24000/1001) FPS
Color space                              : YUV
Chroma subsampling                       : 4:2:0
Bit depth                                : 8 bits
Scan type                                : Progressive
Bits/(Pixel*Frame)                       : 0.128
Stream size                              : 836 MiB (82%)
Default                                  : Yes
Forced                                   : No
Color range                              : Limited
Color primaries                          : BT.709
Transfer characteristics                 : BT.709
Matrix coefficients                      : BT.709

Audio
ID                                       : 2
Format                                   : E-AC-3
Format/Info                              : Enhanced AC-3
Commercial name                          : Dolby Digital Plus
Codec ID                                 : A_EAC3
Duration                                 : 41 min 11 s
Bit rate mode                            : Constant
Bit rate                                 : 640 kb/s
Channel(s)                               : 6 channels
Channel layout                           : L R C LFE Ls Rs
Sampling rate                            : 48.0 kHz
Frame rate                               : 31.250 FPS (1536 SPF)
Compression mode                         : Lossy
Stream size                              : 189 MiB (18%)
Language                                 : English (US)
Service kind                             : Complete Main
Default                                  : Yes
Forced                                   : No

Text #1
ID                                       : 3
Format                                   : UTF-8
Codec ID                                 : S_TEXT/UTF8
Codec ID/Info                            : UTF-8 Plain Text
Duration                                 : 39 min 48 s
Bit rate                                 : 78 b/s
Frame rate                               : 0.305 FPS
Count of elements                        : 729
Stream size                              : 23.0 KiB (0%)
Language                                 : English (US)
Default                                  : No
Forced                                   : No

Text #2
ID                                       : 4
Format                                   : UTF-8
Codec ID                                 : S_TEXT/UTF8
Codec ID/Info                            : UTF-8 Plain Text
Duration                                 : 41 min 4 s
Bit rate                                 : 84 b/s
Frame rate                               : 0.359 FPS
Count of elements                        : 884
Stream size                              : 25.5 KiB (0%)
Title                                    : SDH
Language                                 : English (US)
Default                                  : No
Forced                                   : No

Menu
00:00:00.000                             : en:Scene 1
00:00:23.000                             : en:Scene 2
00:00:58.000                             : en:Scene 3
00:02:24.000                             : en:Scene 4
00:03:31.000                             : en:Scene 5
00:04:20.000                             : en:Scene 6
00:06:13.000                             : en:Scene 7
00:07:03.000                             : en:Scene 8
00:07:43.000                             : en:Scene 9
00:09:16.000                             : en:Scene 10
00:10:27.000                             : en:Scene 11
00:11:11.000                             : en:Scene 12
00:12:05.000                             : en:Scene 13
00:12:55.000                             : en:Scene 14
00:13:56.000                             : en:Scene 15
00:15:10.000                             : en:Scene 16
00:15:54.000                             : en:Scene 17
00:16:33.000                             : en:Scene 18
00:18:35.000                             : en:Scene 19
00:19:29.000                             : en:Scene 20
00:20:16.000                             : en:Scene 21
00:21:08.000                             : en:Scene 22
00:21:40.000                             : en:Scene 23
00:23:03.000                             : en:Scene 24
00:23:35.000                             : en:Scene 25
00:24:27.000                             : en:Scene 26
00:24:58.000                             : en:Scene 27
00:25:45.000                             : en:Scene 28
00:26:28.000                             : en:Scene 29
00:27:08.000                             : en:Scene 30
00:27:58.000                             : en:Scene 31
00:29:24.000                             : en:Scene 32
00:30:10.000                             : en:Scene 33
00:30:32.000                             : en:Scene 34
00:31:27.000                             : en:Scene 35
00:32:10.000                             : en:Scene 36
00:33:00.000                             : en:Scene 37
00:34:25.000                             : en:Scene 38
00:35:01.000                             : en:Scene 39
00:35:34.000                             : en:Scene 40
00:36:41.000                             : en:Scene 41
00:38:11.000                             : en:Scene 42
00:38:55.000                             : en:Scene 43
00:40:31.000                             : en:Scene 44



Download
File Container: MKV
Video/Audio Codec: H264 (HIGH) EAC3
Video Resolution: 1280x720
Please Login to post a comment.
If you don't have any account, please Register.
  • Subscribe my Feeds
  • Facebook
Encoding Queue:  x264  x265

Latest Episodes

Popular Movies and TV Shows

  • Shogun
  • Immaculate
  • Sweet Dreams
  • The Deadly Swarm
  • The Neighborhood
  • Friends Like Her
  • NCIS
  • NCIS: Hawai'i
  • Jimmy Carr: Natural Born Killer
  • Ctrl+Alt+Desire
  • Project Dorothy
  • Spring Lakes
  • All American
  • Family Guy
  • The Sympathizer
  • Dune: Part Two
  • The 100th: Billy Joel at Madison Square Garden - The Greatest Arena Run of All Time
  • The Crow: Salvation
  • Tracker
  • The Great North
  • Hundreds of Beavers
  • The Bold and the Beautiful
  • Model House
  • Abba: How They Won Eurovision
  • Fallout

Recent Comments

  • kellym2: Why am I getting "Server is in maintenance mode" on some episodes of a series and not on o...
  • Bud:

    Are you ever going to put up Thursday's episode with Liev Schreiber?

  • alp-engin:

    When will that maintenance be over? Please...

  • mentalityx:

    Rad bloke

  • DownloadHostInspector:

    so far these RMTeam uploads always have a working link. DownloadHostInspector approved!

  • DownloadHostInspector:

    ah yes, this upload has a host that works. clicknupload. DownloadHostInspector approved!

  • DownloadHostInspector: Why are all the download hosts trash? none of them let you download it
  • Qua4ratic:

    clicknupload link plz

  • ppoo:

    Please, can you add "Real Time with Bill Maher S22E11" ??

  • theahtisham:

    Kindly upload Ep. 3 and 4 as well.

Archives