Sign Up   |   Sign In  
Rebel Moon - Part Two: The ScargiverSugarYoung SheldonA Gentleman in MoscowLate Night with the DevilAsphalt CityBlood for DustElsbethLaw & Order: Special Victims UnitManhuntGhostbusters: Frozen EmpireThe Three Musketeers - Part II: MiladyThe ReaderStar Trek: DiscoveryAmerican Horror StoryFamily GuyYou Were Never Really HereGodzilla x Kong: The New EmpireLa margeThe Good DoctorFBIStar Wars: The Bad BatchImmaculateDune: Part TwoAn American Bombing: The Road to April 19th

Announcements

02/28

2024

1

Comments

FBI International S03E03 Magpie 720p AMZN WEB-DL DDP5 1 H 264-FLUX
[RR/NF/CU]
Size: 1.1GB mkv H264 (HIGH) / EAC3  HD  1280x720

FBI: International
File Information
[img]http://lookpic.com/cdn/i2/t/0227202422091358-1.jpg[/img]
[img]http://lookpic.com/cdn/i2/t/0227202422091358-2.jpg[/img]
[img]http://lookpic.com/cdn/i2/t/0227202422091358-3.jpg[/img]

General
Unique ID                                : 43331784551987647827071254366968113285 (0x209965EC9598F6E33C82B13099406885)
Complete name                            : FBI.International.S03E03.Magpie.720p.AMZN.WEB-DL.DDP5.1.H.264-FLUX.mkv
Format                                   : Matroska
Format version                           : Version 4
File size                                : 1.06 GiB
Duration                                 : 41 min 0 s
Overall bit rate                         : 3 698 kb/s
Frame rate                               : 23.976 FPS
Writing application                      : mkvmerge v82.0 ('I'm The President') 64-bit
Writing library                          : libebml v1.4.5 + libmatroska v1.7.1

Video
ID                                       : 1
Format                                   : AVC
Format/Info                              : Advanced Video Codec
Format profile                           : High@L3.1
Format settings                          : CABAC / 4 Ref Frames
Format settings, CABAC                   : Yes
Format settings, Reference frames        : 4 frames
Codec ID                                 : V_MPEG4/ISO/AVC
Duration                                 : 41 min 0 s
Bit rate mode                            : Constant
Bit rate                                 : 3 056 kb/s
Nominal bit rate                         : 6 000 kb/s
Width                                    : 1 280 pixels
Height                                   : 720 pixels
Display aspect ratio                     : 16:9
Frame rate mode                          : Constant
Frame rate                               : 23.976 (24000/1001) FPS
Color space                              : YUV
Chroma subsampling                       : 4:2:0
Bit depth                                : 8 bits
Scan type                                : Progressive
Bits/(Pixel*Frame)                       : 0.138
Stream size                              : 896 MiB (83%)
Language                                 : English (US)
Default                                  : Yes
Forced                                   : No
Color range                              : Limited
Color primaries                          : BT.709
Transfer characteristics                 : BT.709
Matrix coefficients                      : BT.709

Audio
ID                                       : 2
Format                                   : E-AC-3
Format/Info                              : Enhanced AC-3
Commercial name                          : Dolby Digital Plus
Codec ID                                 : A_EAC3
Duration                                 : 41 min 0 s
Bit rate mode                            : Constant
Bit rate                                 : 640 kb/s
Channel(s)                               : 6 channels
Channel layout                           : L R C LFE Ls Rs
Sampling rate                            : 48.0 kHz
Frame rate                               : 31.250 FPS (1536 SPF)
Compression mode                         : Lossy
Stream size                              : 188 MiB (17%)
Language                                 : English
Service kind                             : Complete Main
Default                                  : Yes
Forced                                   : No

Text #1
ID                                       : 3
Format                                   : UTF-8
Codec ID                                 : S_TEXT/UTF8
Codec ID/Info                            : UTF-8 Plain Text
Duration                                 : 39 min 39 s
Bit rate                                 : 91 b/s
Frame rate                               : 0.354 FPS
Count of elements                        : 842
Stream size                              : 26.6 KiB (0%)
Language                                 : English (US)
Default                                  : No
Forced                                   : No

Text #2
ID                                       : 4
Format                                   : UTF-8
Codec ID                                 : S_TEXT/UTF8
Codec ID/Info                            : UTF-8 Plain Text
Duration                                 : 40 min 54 s
Bit rate                                 : 96 b/s
Frame rate                               : 0.398 FPS
Count of elements                        : 978
Stream size                              : 28.8 KiB (0%)
Title                                    : SDH
Language                                 : English (US)
Default                                  : No
Forced                                   : No

Menu
00:00:00.000                             : en:Scene 1
00:40:29.000                             : en:End Credits



Download
File Container: MKV
Video/Audio Codec: H264 (HIGH) EAC3
Video Resolution: 1280x720

1 Response to "[RR/NF/CU] FBI International S03E03 Magpie 720p AMZN WEB-DL DDP5 1 H 264-FLUX (1.1GB)"
02/28/24
08:32:42
ReadyPlayerOne

Thank You

Please Login to post a comment.
If you don't have any account, please Register.
  • Subscribe my Feeds
  • Facebook
Encoding Queue:  x264  x265

Latest Episodes

Popular Movies and TV Shows

  • Rebel Moon - Part Two: The Scargiver
  • Sugar
  • Young Sheldon
  • A Gentleman in Moscow
  • Late Night with the Devil
  • Asphalt City
  • Blood for Dust
  • Elsbeth
  • Law & Order: Special Victims Unit
  • Manhunt
  • Ghostbusters: Frozen Empire
  • The Three Musketeers - Part II: Milady
  • The Reader
  • Star Trek: Discovery
  • American Horror Story
  • Family Guy
  • You Were Never Really Here
  • Godzilla x Kong: The New Empire
  • La marge
  • The Good Doctor
  • FBI
  • Star Wars: The Bad Batch
  • Immaculate
  • Dune: Part Two
  • An American Bombing: The Road to April 19th

Recent Comments

  • 23d1:

    ClicknUpload link is missing

  • yopo:

    NitroFlare's link is missing !!!

  • yopo:

    NitroFlare's link is missing !!!

  • yopo:

    NitroFlare's link is missing !!!
    Clicknupload's link is missing !!!

  • yopo:

    NitroFlare's link is missing !!!

  • dragonnightfire: I have tried contacting Rapid Rar to find out what is going on with the server maintainance. I am no...
  • dragonnightfire:

    RR links dead on 5 eps

  • Draveren: hi. can we solve this "server under maintenance" stuff, already? if back in the day i'd ke...
  • Majnon: The links are dead. Please re-upload
  • timt:

    Anyone have the movie "Shoot" (1976) to post?

  • Nightshade: Hey, it appears at least the RMTeam separate episodes and ION's packs for the first two seasons of t...
  • Bigfishguy:

    There's no free option to download this video. Can someone please upload it to clicknupload?

  • timt:

    Junk

  • timt:

    CAM Audio

  • timt:

    Hard Coded SUMS! Russian, I Think.

  • ubirattan:

    Mandem um Fikper, por favor.

  • kellym2: No answer yet for my query - why all the episodes "server under maintenance" on some episo...
  • Majnon:

    Rapidrar links are dead :(

  • Rake:

    Loads of "Server is under maintenance" with RR theese days...

Archives