Sign Up   |   Sign In  
Hundreds of BeaversBar RescueThe 100th: Billy Joel at Madison Square Garden - The Greatest Arena Run of All TimeFull SwingFamily GuyAbba: How They Won EurovisionThe SympathizerTrackerDune: Part TwoModel HouseThe Great NorthKurt Cobain: Moments That Shook MusicWhen Calls the HeartSullivan's CrossingBeacon 23The Batman vs. DraculaThe ChannelThere's Still TomorrowFalloutShogunS.W.A.T.Trinket BoxThe Taste of ThingsTo Die ForFBI

Announcements

02/28

2024

1

Comments

Fbi International S03E03 Magpie 720p AMZN WEB-DL DDP5 1 H 264-NTb
[RR/NF/CU]
Size: 1.1GB mkv H264 (HIGH) / EAC3  HD  1280x720

FBI: International
File Information
[img]http://lookpic.com/cdn/i2/t/0228202409503741-1.jpg[/img]
[img]http://lookpic.com/cdn/i2/t/0228202409503741-2.jpg[/img]
[img]http://lookpic.com/cdn/i2/t/0228202409503741-3.jpg[/img]

General
Unique ID                                : 235210682658162849609271536094271676081 (0xB0F3EE00A142F31DA0816E1AD2469EB1)
Complete name                            : Fbi.International.S03E03.Magpie.720p.AMZN.WEB-DL.DDP5.1.H.264-NTb.mkv
Format                                   : Matroska
Format version                           : Version 4
File size                                : 1.05 GiB
Duration                                 : 41 min 7 s
Overall bit rate                         : 3 671 kb/s
Frame rate                               : 23.976 FPS
Writing application                      : mkvmerge v81.0 ('Milliontown') 64-bit
Writing library                          : libebml v1.4.4 + libmatroska v1.7.1

Video
ID                                       : 1
Format                                   : AVC
Format/Info                              : Advanced Video Codec
Format profile                           : High@L3.1
Format settings                          : CABAC / 4 Ref Frames
Format settings, CABAC                   : Yes
Format settings, Reference frames        : 4 frames
Codec ID                                 : V_MPEG4/ISO/AVC
Duration                                 : 41 min 7 s
Bit rate mode                            : Constant
Bit rate                                 : 3 029 kb/s
Nominal bit rate                         : 6 000 kb/s
Width                                    : 1 280 pixels
Height                                   : 720 pixels
Display aspect ratio                     : 16:9
Frame rate mode                          : Constant
Frame rate                               : 23.976 (24000/1001) FPS
Color space                              : YUV
Chroma subsampling                       : 4:2:0
Bit depth                                : 8 bits
Scan type                                : Progressive
Bits/(Pixel*Frame)                       : 0.137
Stream size                              : 891 MiB (83%)
Default                                  : Yes
Forced                                   : No
Color range                              : Limited
Color primaries                          : BT.709
Transfer characteristics                 : BT.709
Matrix coefficients                      : BT.709

Audio
ID                                       : 2
Format                                   : E-AC-3
Format/Info                              : Enhanced AC-3
Commercial name                          : Dolby Digital Plus
Codec ID                                 : A_EAC3
Duration                                 : 41 min 7 s
Bit rate mode                            : Constant
Bit rate                                 : 640 kb/s
Channel(s)                               : 6 channels
Channel layout                           : L R C LFE Ls Rs
Sampling rate                            : 48.0 kHz
Frame rate                               : 31.250 FPS (1536 SPF)
Compression mode                         : Lossy
Stream size                              : 188 MiB (17%)
Language                                 : English (US)
Service kind                             : Complete Main
Default                                  : Yes
Forced                                   : No

Text #1
ID                                       : 3
Format                                   : UTF-8
Codec ID                                 : S_TEXT/UTF8
Codec ID/Info                            : UTF-8 Plain Text
Duration                                 : 39 min 44 s
Bit rate                                 : 91 b/s
Frame rate                               : 0.353 FPS
Count of elements                        : 842
Stream size                              : 26.6 KiB (0%)
Language                                 : English (US)
Default                                  : No
Forced                                   : No

Text #2
ID                                       : 4
Format                                   : UTF-8
Codec ID                                 : S_TEXT/UTF8
Codec ID/Info                            : UTF-8 Plain Text
Duration                                 : 41 min 0 s
Bit rate                                 : 95 b/s
Frame rate                               : 0.397 FPS
Count of elements                        : 978
Stream size                              : 28.8 KiB (0%)
Title                                    : SDH
Language                                 : English (US)
Default                                  : No
Forced                                   : No



Download
File Container: MKV
Video/Audio Codec: H264 (HIGH) EAC3
Video Resolution: 1280x720

1 Response to "[RR/NF/CU] Fbi International S03E03 Magpie 720p AMZN WEB-DL DDP5 1 H 264-NTb (1.1GB)"
02/28/24
20:26:54
ReadyPlayerOne

Thank You

Please Login to post a comment.
If you don't have any account, please Register.
  • Subscribe my Feeds
  • Facebook
Encoding Queue:  x264  x265

Latest Episodes

Popular Movies and TV Shows

  • Hundreds of Beavers
  • Bar Rescue
  • The 100th: Billy Joel at Madison Square Garden - The Greatest Arena Run of All Time
  • Full Swing
  • Family Guy
  • Abba: How They Won Eurovision
  • The Sympathizer
  • Tracker
  • Dune: Part Two
  • Model House
  • The Great North
  • Kurt Cobain: Moments That Shook Music
  • When Calls the Heart
  • Sullivan's Crossing
  • Beacon 23
  • The Batman vs. Dracula
  • The Channel
  • There's Still Tomorrow
  • Fallout
  • Shogun
  • S.W.A.T.
  • Trinket Box
  • The Taste of Things
  • To Die For
  • FBI

Recent Comments

  • Bud:

    Are you ever going to put up Thursday's episode with Liev Schreiber?

  • alp-engin:

    When will that maintenance be over? Please...

  • mentalityx:

    Rad bloke

  • DownloadHostInspector:

    so far these RMTeam uploads always have a working link. DownloadHostInspector approved!

  • DownloadHostInspector:

    ah yes, this upload has a host that works. clicknupload. DownloadHostInspector approved!

  • DownloadHostInspector: Why are all the download hosts trash? none of them let you download it
  • Qua4ratic:

    clicknupload link plz

  • ppoo:

    Please, can you add "Real Time with Bill Maher S22E11" ??

  • theahtisham:

    Kindly upload Ep. 3 and 4 as well.

Archives