Sign Up   |   Sign In  
The RookieUnder the BridgeWWE NXTThe Fall GuyReptiliansHeadshotDark MatterWill TrentFBIMoonedBoy Kills WorldGekijouban soushuuhen Ôbârôdo: Shikkoku no eiyuuThe Cleaning LadyThe Good DoctorFBI: Most WantedThe Manchurian CandidateVisionsExpend4blesFBI: InternationalWWE RawThe VeilSeize Them!The Name of the Rose8 Found DeadThe Simpsons

Announcements

04/10

2024

1

Comments

FBI International S03E08 Remove the Compromise 720p AMZN WEB-DL DDP5 1 H 264-NTb
[RR/NF/CU]
Size: 1GB mkv H264 (HIGH) / EAC3  HD  1280x720

FBI: International
File Information
[img]http://lookpic.com/cdn/i2/t/0410202408201849-1.jpg[/img]
[img]http://lookpic.com/cdn/i2/t/0410202408201849-2.jpg[/img]
[img]http://lookpic.com/cdn/i2/t/0410202408201849-3.jpg[/img]

General
Unique ID                                : 147518007491950783525773091556463999357 (0x6EFAEF4ED2F1F991739B3DC71357F97D)
Complete name                            : FBI International S03E08 Remove the Compromise 720p AMZN WEB-DL DDP5 1 H 264-NTb.mkv
Format                                   : Matroska
Format version                           : Version 4
File size                                : 1.00 GiB
Duration                                 : 43 min 4 s
Overall bit rate                         : 3 325 kb/s
Frame rate                               : 23.976 FPS
Writing application                      : mkvmerge v81.0 ('Milliontown') 64-bit
Writing library                          : libebml v1.4.4 + libmatroska v1.7.1

Video
ID                                       : 1
Format                                   : AVC
Format/Info                              : Advanced Video Codec
Format profile                           : High@L3.1
Format settings                          : CABAC / 4 Ref Frames
Format settings, CABAC                   : Yes
Format settings, Reference frames        : 4 frames
Codec ID                                 : V_MPEG4/ISO/AVC
Duration                                 : 43 min 4 s
Bit rate mode                            : Constant
Bit rate                                 : 2 683 kb/s
Nominal bit rate                         : 6 000 kb/s
Width                                    : 1 280 pixels
Height                                   : 720 pixels
Display aspect ratio                     : 16:9
Frame rate mode                          : Constant
Frame rate                               : 23.976 (24000/1001) FPS
Color space                              : YUV
Chroma subsampling                       : 4:2:0
Bit depth                                : 8 bits
Scan type                                : Progressive
Bits/(Pixel*Frame)                       : 0.121
Stream size                              : 826 MiB (81%)
Default                                  : Yes
Forced                                   : No
Color range                              : Limited
Color primaries                          : BT.709
Transfer characteristics                 : BT.709
Matrix coefficients                      : BT.709

Audio
ID                                       : 2
Format                                   : E-AC-3
Format/Info                              : Enhanced AC-3
Commercial name                          : Dolby Digital Plus
Codec ID                                 : A_EAC3
Duration                                 : 43 min 4 s
Bit rate mode                            : Constant
Bit rate                                 : 640 kb/s
Channel(s)                               : 6 channels
Channel layout                           : L R C LFE Ls Rs
Sampling rate                            : 48.0 kHz
Frame rate                               : 31.250 FPS (1536 SPF)
Compression mode                         : Lossy
Stream size                              : 197 MiB (19%)
Language                                 : English (US)
Service kind                             : Complete Main
Default                                  : Yes
Forced                                   : No

Text #1
ID                                       : 3
Format                                   : UTF-8
Codec ID                                 : S_TEXT/UTF8
Codec ID/Info                            : UTF-8 Plain Text
Duration                                 : 41 min 57 s
Bit rate                                 : 76 b/s
Frame rate                               : 0.300 FPS
Count of elements                        : 754
Stream size                              : 23.6 KiB (0%)
Language                                 : English (US)
Default                                  : No
Forced                                   : No

Text #2
ID                                       : 4
Format                                   : UTF-8
Codec ID                                 : S_TEXT/UTF8
Codec ID/Info                            : UTF-8 Plain Text
Duration                                 : 42 min 57 s
Bit rate                                 : 84 b/s
Frame rate                               : 0.368 FPS
Count of elements                        : 948
Stream size                              : 26.6 KiB (0%)
Title                                    : SDH
Language                                 : English (US)
Default                                  : No
Forced                                   : No



Download
File Container: MKV
Video/Audio Codec: H264 (HIGH) EAC3
Video Resolution: 1280x720

1 Response to "[RR/NF/CU] FBI International S03E08 Remove the Compromise 720p AMZN WEB-DL DDP5 1 H 264-NTb (1GB)"
04/10/24
14:59:51
ReadyPlayerOne

Thank You

Please Login to post a comment.
If you don't have any account, please Register.
  • Subscribe my Feeds
  • Facebook
Encoding Queue:  x264  x265

Latest Episodes

Popular Movies and TV Shows

  • The Rookie
  • Under the Bridge
  • WWE NXT
  • The Fall Guy
  • Reptilians
  • Headshot
  • Dark Matter
  • Will Trent
  • FBI
  • Mooned
  • Boy Kills World
  • Gekijouban soushuuhen Ôbârôdo: Shikkoku no eiyuu
  • The Cleaning Lady
  • The Good Doctor
  • FBI: Most Wanted
  • The Manchurian Candidate
  • Visions
  • Expend4bles
  • FBI: International
  • WWE Raw
  • The Veil
  • Seize Them!
  • The Name of the Rose
  • 8 Found Dead
  • The Simpsons

Recent Comments

  • OldMovies:

    Has Czech subtitles but not English. Need forced English for the foreign language parts.

  • PROFessorMorrynarty: Would it be possible to upload 'Lego masters Australia' Series 6 Episode 6 Please? It's the only one...
  • mentalityx:

    Thx mate.

  • Bud: Is the search engine down for everyone, or just me? It just says 'You're forbidden!' whenever I lo...
  • 23d1:

    not episode 4 it is episode 3

  • 23d1:

    not episode 4 it is episode 3

  • 23d1:

    not episode 4 it is episode 3

  • 23d1:

    not episode 4 it is episode 3

  • aaroz88:

    Trimas!!

  • mptoo: I don't often ask this, infact this would be the first time, but I don't suppose there is any chance...
  • Cinque_Persson:

    btw:
    quote /quote
    is broken

  • gabrielsyme:

    Sorry but where is the clicknupload link?

  • mike1204:

    Is this episode doomed??? The RMX avi version is only 12 minutes long!!!

Archives