Sign Up   |   Sign In  
The 100th: Billy Joel at Madison Square Garden - The Greatest Arena Run of All TimeFamily GuyAvoidanceThe Banished Former Hero Lives as He PleasesHundreds of BeaversStill: A Michael J. Fox MovieThe SympathizerDune: Part TwoModel HouseAbba: How They Won EurovisionFull SwingThe Great NorthTrackerWhen Calls the HeartSullivan's CrossingThe Batman vs. DraculaKurt Cobain: Moments That Shook MusicThe ChannelFalloutBeacon 23ShogunTrinket BoxThere's Still TomorrowTo Die ForFBI

Announcements

02/28

2024

1

Comments

FBI Most Wanted S05E03 Ghost in the Machine 720p AMZN WEB-DL DDP5 1 H 264-NTb
[RR/NF/CU]
Size: 1GB mkv H264 (HIGH) / EAC3  HD  1280x720

FBI: Most Wanted
File Information
[img]http://lookpic.com/cdn/i2/t/0228202409511551-1.jpg[/img]
[img]http://lookpic.com/cdn/i2/t/0228202409511551-2.jpg[/img]
[img]http://lookpic.com/cdn/i2/t/0228202409511551-3.jpg[/img]

General
Unique ID                                : 217680846165540869007418554419300067156 (0xA3C3CE55AFD17B473947B05DC668E754)
Complete name                            : FBI.Most.Wanted.S05E03.Ghost.in.the.Machine.720p.AMZN.WEB-DL.DDP5.1.H.264-NTb.mkv
Format                                   : Matroska
Format version                           : Version 4
File size                                : 1.02 GiB
Duration                                 : 42 min 14 s
Overall bit rate                         : 3 455 kb/s
Frame rate                               : 23.976 FPS
Writing application                      : mkvmerge v81.0 ('Milliontown') 64-bit
Writing library                          : libebml v1.4.4 + libmatroska v1.7.1

Video
ID                                       : 1
Format                                   : AVC
Format/Info                              : Advanced Video Codec
Format profile                           : High@L3.1
Format settings                          : CABAC / 4 Ref Frames
Format settings, CABAC                   : Yes
Format settings, Reference frames        : 4 frames
Codec ID                                 : V_MPEG4/ISO/AVC
Duration                                 : 42 min 14 s
Bit rate mode                            : Constant
Bit rate                                 : 2 813 kb/s
Nominal bit rate                         : 6 000 kb/s
Width                                    : 1 280 pixels
Height                                   : 720 pixels
Display aspect ratio                     : 16:9
Frame rate mode                          : Constant
Frame rate                               : 23.976 (24000/1001) FPS
Color space                              : YUV
Chroma subsampling                       : 4:2:0
Bit depth                                : 8 bits
Scan type                                : Progressive
Bits/(Pixel*Frame)                       : 0.127
Stream size                              : 850 MiB (81%)
Default                                  : Yes
Forced                                   : No
Color range                              : Limited
Color primaries                          : BT.709
Transfer characteristics                 : BT.709
Matrix coefficients                      : BT.709

Audio
ID                                       : 2
Format                                   : E-AC-3
Format/Info                              : Enhanced AC-3
Commercial name                          : Dolby Digital Plus
Codec ID                                 : A_EAC3
Duration                                 : 42 min 14 s
Bit rate mode                            : Constant
Bit rate                                 : 640 kb/s
Channel(s)                               : 6 channels
Channel layout                           : L R C LFE Ls Rs
Sampling rate                            : 48.0 kHz
Frame rate                               : 31.250 FPS (1536 SPF)
Compression mode                         : Lossy
Stream size                              : 193 MiB (19%)
Language                                 : English (US)
Service kind                             : Complete Main
Default                                  : Yes
Forced                                   : No

Text #1
ID                                       : 3
Format                                   : UTF-8
Codec ID                                 : S_TEXT/UTF8
Codec ID/Info                            : UTF-8 Plain Text
Duration                                 : 41 min 33 s
Bit rate                                 : 93 b/s
Frame rate                               : 0.347 FPS
Count of elements                        : 865
Stream size                              : 28.5 KiB (0%)
Language                                 : English (US)
Default                                  : No
Forced                                   : No

Text #2
ID                                       : 4
Format                                   : UTF-8
Codec ID                                 : S_TEXT/UTF8
Codec ID/Info                            : UTF-8 Plain Text
Duration                                 : 42 min 11 s
Bit rate                                 : 99 b/s
Frame rate                               : 0.384 FPS
Count of elements                        : 973
Stream size                              : 30.6 KiB (0%)
Title                                    : SDH
Language                                 : English (US)
Default                                  : No
Forced                                   : No



Download
File Container: MKV
Video/Audio Codec: H264 (HIGH) EAC3
Video Resolution: 1280x720

1 Response to "[RR/NF/CU] FBI Most Wanted S05E03 Ghost in the Machine 720p AMZN WEB-DL DDP5 1 H 264-NTb (1GB)"
02/28/24
20:27:10
ReadyPlayerOne

Thank You

Please Login to post a comment.
If you don't have any account, please Register.
  • Subscribe my Feeds
  • Facebook
Encoding Queue:  x264  x265

Latest Episodes

Popular Movies and TV Shows

  • The 100th: Billy Joel at Madison Square Garden - The Greatest Arena Run of All Time
  • Family Guy
  • Avoidance
  • The Banished Former Hero Lives as He Pleases
  • Hundreds of Beavers
  • Still: A Michael J. Fox Movie
  • The Sympathizer
  • Dune: Part Two
  • Model House
  • Abba: How They Won Eurovision
  • Full Swing
  • The Great North
  • Tracker
  • When Calls the Heart
  • Sullivan's Crossing
  • The Batman vs. Dracula
  • Kurt Cobain: Moments That Shook Music
  • The Channel
  • Fallout
  • Beacon 23
  • Shogun
  • Trinket Box
  • There's Still Tomorrow
  • To Die For
  • FBI

Recent Comments

  • Bud:

    Are you ever going to put up Thursday's episode with Liev Schreiber?

  • alp-engin:

    When will that maintenance be over? Please...

  • mentalityx:

    Rad bloke

  • DownloadHostInspector:

    so far these RMTeam uploads always have a working link. DownloadHostInspector approved!

  • DownloadHostInspector:

    ah yes, this upload has a host that works. clicknupload. DownloadHostInspector approved!

  • DownloadHostInspector: Why are all the download hosts trash? none of them let you download it
  • Qua4ratic:

    clicknupload link plz

  • ppoo:

    Please, can you add "Real Time with Bill Maher S22E11" ??

  • theahtisham:

    Kindly upload Ep. 3 and 4 as well.

Archives