Sign Up   |   Sign In  
Inside No. 9The Many Lives of Martha StewartRebusHidden CityShe Is ConannDoctor WhoS.W.A.T.Yatagarasu: The Raven Does Not Choose Its MasterNähtamatu võitlusImaginary8 Views of Lake BiwaYoung SheldonBlue BloodsFire CountryEasy RiderChallengers12.12: The DaySugarStar Trek: DiscoveryGrey's AnatomyGodzilla x Kong: The New EmpireMothers' InstinctAdagioA Gentleman in MoscowElsbeth

Announcements

04/17

2024

1

Comments

Fbi Most Wanted S05E09 The Return 1080p AMZN WEB-DL DDP5 1 H 264-NTb
[RR/NF]
Size: 2.3GB mkv H264 (HIGH) / EAC3  HD  1920x1080

FBI: Most Wanted
File Information
[img]http://lookpic.com/cdn/i2/t/0417202415143203-1.jpg[/img]
[img]http://lookpic.com/cdn/i2/t/0417202415143203-2.jpg[/img]
[img]http://lookpic.com/cdn/i2/t/0417202415143203-3.jpg[/img]

General
Unique ID                                : 233605778169779783898554399583093617757 (0xAFBED61A1C252452C8DE37477113745D)
Complete name                            : Fbi Most Wanted S05E09 The Return 1080p AMZN WEB-DL DDP5 1 H 264-NTb.mkv
Format                                   : Matroska
Format version                           : Version 4
File size                                : 2.31 GiB
Duration                                 : 43 min 4 s
Overall bit rate                         : 7 675 kb/s
Frame rate                               : 23.976 FPS
Writing application                      : mkvmerge v81.0 ('Milliontown') 64-bit
Writing library                          : libebml v1.4.4 + libmatroska v1.7.1

Video
ID                                       : 1
Format                                   : AVC
Format/Info                              : Advanced Video Codec
Format profile                           : High@L4
Format settings                          : CABAC / 4 Ref Frames
Format settings, CABAC                   : Yes
Format settings, Reference frames        : 4 frames
Codec ID                                 : V_MPEG4/ISO/AVC
Duration                                 : 43 min 4 s
Bit rate mode                            : Constant
Bit rate                                 : 7 032 kb/s
Nominal bit rate                         : 10 000 kb/s
Width                                    : 1 920 pixels
Height                                   : 1 080 pixels
Display aspect ratio                     : 16:9
Frame rate mode                          : Constant
Frame rate                               : 23.976 (24000/1001) FPS
Color space                              : YUV
Chroma subsampling                       : 4:2:0
Bit depth                                : 8 bits
Scan type                                : Progressive
Bits/(Pixel*Frame)                       : 0.141
Stream size                              : 2.12 GiB (92%)
Default                                  : Yes
Forced                                   : No
Color range                              : Limited
Color primaries                          : BT.709
Transfer characteristics                 : BT.709
Matrix coefficients                      : BT.709

Audio
ID                                       : 2
Format                                   : E-AC-3
Format/Info                              : Enhanced AC-3
Commercial name                          : Dolby Digital Plus
Codec ID                                 : A_EAC3
Duration                                 : 43 min 4 s
Bit rate mode                            : Constant
Bit rate                                 : 640 kb/s
Channel(s)                               : 6 channels
Channel layout                           : L R C LFE Ls Rs
Sampling rate                            : 48.0 kHz
Frame rate                               : 31.250 FPS (1536 SPF)
Compression mode                         : Lossy
Stream size                              : 197 MiB (8%)
Language                                 : English (US)
Service kind                             : Complete Main
Default                                  : Yes
Forced                                   : No

Text #1
ID                                       : 3
Format                                   : UTF-8
Codec ID                                 : S_TEXT/UTF8
Codec ID/Info                            : UTF-8 Plain Text
Duration                                 : 42 min 23 s
Bit rate                                 : 90 b/s
Frame rate                               : 0.349 FPS
Count of elements                        : 888
Stream size                              : 28.0 KiB (0%)
Language                                 : English (US)
Default                                  : No
Forced                                   : No

Text #2
ID                                       : 4
Format                                   : UTF-8
Codec ID                                 : S_TEXT/UTF8
Codec ID/Info                            : UTF-8 Plain Text
Duration                                 : 42 min 55 s
Bit rate                                 : 93 b/s
Frame rate                               : 0.375 FPS
Count of elements                        : 965
Stream size                              : 29.5 KiB (0%)
Title                                    : SDH
Language                                 : English (US)
Default                                  : No
Forced                                   : No



Download
File Container: MKV
Video/Audio Codec: H264 (HIGH) EAC3
Video Resolution: 1920x1080

1 Response to "[RR/NF] Fbi Most Wanted S05E09 The Return 1080p AMZN WEB-DL DDP5 1 H 264-NTb (2.3GB)"
04/17/24
18:07:40
ReadyPlayerOne

Thank You

Please Login to post a comment.
If you don't have any account, please Register.
  • Subscribe my Feeds
  • Facebook
Encoding Queue:  x264  x265

Latest Episodes

Popular Movies and TV Shows

  • Inside No. 9
  • The Many Lives of Martha Stewart
  • Rebus
  • Hidden City
  • She Is Conann
  • Doctor Who
  • S.W.A.T.
  • Yatagarasu: The Raven Does Not Choose Its Master
  • Nähtamatu võitlus
  • Imaginary
  • 8 Views of Lake Biwa
  • Young Sheldon
  • Blue Bloods
  • Fire Country
  • Easy Rider
  • Challengers
  • 12.12: The Day
  • Sugar
  • Star Trek: Discovery
  • Grey's Anatomy
  • Godzilla x Kong: The New Empire
  • Mothers' Instinct
  • Adagio
  • A Gentleman in Moscow
  • Elsbeth

Recent Comments

  • 23d1:

    not episode 4 it is episode 3

  • 23d1:

    not episode 4 it is episode 3

  • 23d1:

    not episode 4 it is episode 3

  • 23d1:

    not episode 4 it is episode 3

  • aaroz88:

    Trimas!!

  • mptoo: I don't often ask this, infact this would be the first time, but I don't suppose there is any chance...
  • Cinque_Persson:

    btw:
    quote /quote
    is broken

  • gabrielsyme:

    Sorry but where is the clicknupload link?

  • mike1204:

    Is this episode doomed??? The RMX avi version is only 12 minutes long!!!

  • waanaabe:

    Could PUSHING DAISES kindly be upoaded to CU? THANKS!

  • mentalityx:

    Thx bloke.

Archives