Sign Up   |   Sign In  
Beacon 23My Life Is MurderInterview with the VampireGaga Chromatica BallBob Marley: One LoveLooperThe Young OffendersThe Zone of InterestFBI: Most WantedAtlasSouth Park: The End of ObesitySound! EuphoniumRebusThe RookieCivil WarSouth ParkFuriosa: A Mad Max SagaKnox Goes AwayWWE NXTStar Trek: DiscoverySurvivorThe Fall Guy5lbs of PressureRed vs. Blue: RestorationThe Daily Show

Announcements

04/17

2024

1

Comments

FBI Most Wanted S05E09 The Return 720p AMZN WEB-DL DDP5 1 H 264-NTb
[RR/NF/CU]
Size: 1GB mkv H264 (HIGH) / EAC3  HD  1280x720

FBI: Most Wanted
File Information
[img]http://lookpic.com/cdn/i2/t/0417202415060535-1.jpg[/img]
[img]http://lookpic.com/cdn/i2/t/0417202415060535-2.jpg[/img]
[img]http://lookpic.com/cdn/i2/t/0417202415060535-3.jpg[/img]

General
Unique ID                                : 79534244778179079004545074499591783204 (0x3BD5BD054EFC9CFFD8ABBC8E883AC324)
Complete name                            : FBI.Most.Wanted.S05E09.The.Return.720p.AMZN.WEB-DL.DDP5.1.H.264-NTb.mkv
Format                                   : Matroska
Format version                           : Version 4
File size                                : 1.03 GiB
Duration                                 : 43 min 4 s
Overall bit rate                         : 3 434 kb/s
Frame rate                               : 23.976 FPS
Writing application                      : mkvmerge v81.0 ('Milliontown') 64-bit
Writing library                          : libebml v1.4.4 + libmatroska v1.7.1

Video
ID                                       : 1
Format                                   : AVC
Format/Info                              : Advanced Video Codec
Format profile                           : High@L3.1
Format settings                          : CABAC / 4 Ref Frames
Format settings, CABAC                   : Yes
Format settings, Reference frames        : 4 frames
Codec ID                                 : V_MPEG4/ISO/AVC
Duration                                 : 43 min 4 s
Bit rate mode                            : Constant
Bit rate                                 : 2 792 kb/s
Nominal bit rate                         : 6 000 kb/s
Width                                    : 1 280 pixels
Height                                   : 720 pixels
Display aspect ratio                     : 16:9
Frame rate mode                          : Constant
Frame rate                               : 23.976 (24000/1001) FPS
Color space                              : YUV
Chroma subsampling                       : 4:2:0
Bit depth                                : 8 bits
Scan type                                : Progressive
Bits/(Pixel*Frame)                       : 0.126
Stream size                              : 860 MiB (81%)
Default                                  : Yes
Forced                                   : No
Color range                              : Limited
Color primaries                          : BT.709
Transfer characteristics                 : BT.709
Matrix coefficients                      : BT.709

Audio
ID                                       : 2
Format                                   : E-AC-3
Format/Info                              : Enhanced AC-3
Commercial name                          : Dolby Digital Plus
Codec ID                                 : A_EAC3
Duration                                 : 43 min 4 s
Bit rate mode                            : Constant
Bit rate                                 : 640 kb/s
Channel(s)                               : 6 channels
Channel layout                           : L R C LFE Ls Rs
Sampling rate                            : 48.0 kHz
Frame rate                               : 31.250 FPS (1536 SPF)
Compression mode                         : Lossy
Stream size                              : 197 MiB (19%)
Language                                 : English (US)
Service kind                             : Complete Main
Default                                  : Yes
Forced                                   : No

Text #1
ID                                       : 3
Format                                   : UTF-8
Codec ID                                 : S_TEXT/UTF8
Codec ID/Info                            : UTF-8 Plain Text
Duration                                 : 42 min 23 s
Bit rate                                 : 90 b/s
Frame rate                               : 0.349 FPS
Count of elements                        : 888
Stream size                              : 28.0 KiB (0%)
Language                                 : English (US)
Default                                  : No
Forced                                   : No

Text #2
ID                                       : 4
Format                                   : UTF-8
Codec ID                                 : S_TEXT/UTF8
Codec ID/Info                            : UTF-8 Plain Text
Duration                                 : 42 min 55 s
Bit rate                                 : 93 b/s
Frame rate                               : 0.375 FPS
Count of elements                        : 965
Stream size                              : 29.5 KiB (0%)
Title                                    : SDH
Language                                 : English (US)
Default                                  : No
Forced                                   : No



Download
File Container: MKV
Video/Audio Codec: H264 (HIGH) EAC3
Video Resolution: 1280x720

1 Response to "[RR/NF/CU] FBI Most Wanted S05E09 The Return 720p AMZN WEB-DL DDP5 1 H 264-NTb (1GB)"
04/17/24
16:44:25
ReadyPlayerOne

Thank You

Please Login to post a comment.
If you don't have any account, please Register.
  • Subscribe my Feeds
  • Facebook
Encoding Queue:  x264  x265

Latest Episodes

Popular Movies and TV Shows

  • Beacon 23
  • My Life Is Murder
  • Interview with the Vampire
  • Gaga Chromatica Ball
  • Bob Marley: One Love
  • Looper
  • The Young Offenders
  • The Zone of Interest
  • FBI: Most Wanted
  • Atlas
  • South Park: The End of Obesity
  • Sound! Euphonium
  • Rebus
  • The Rookie
  • Civil War
  • South Park
  • Furiosa: A Mad Max Saga
  • Knox Goes Away
  • WWE NXT
  • Star Trek: Discovery
  • Survivor
  • The Fall Guy
  • 5lbs of Pressure
  • Red vs. Blue: Restoration
  • The Daily Show

Recent Comments

  • Rafi85: Hi thx for the 14th season. Is it possible to reupload some episodes plz they were removed. These ar...
  • KubrickFan:

    Any possibility of a fresh link for this?

  • GubeShitemon: This is a different movie to the artwork version. Not the Dylan McDermott film but the Ben Affleck f...
  • Wrapt: Hahahaha yeah right make a liar out of me but I was referring to comments made about a movie or an e...
  • Wrapt: Comments are not always appearing in the Recent Comments list after submitting a comment any reason ...
  • waanaabe:

    warning: speaks German Swedish and French for those without English subs...

  • spiker1961:

    The audio on this is a commentary track, not the actual film audio.

  • spiker1961:

    The audio on this is a commentary track, not the film audio.

  • DuranDuran: The MS PAT show - - Does anyone have BOTH the MS PAT show (SEASON 4) & (SEASON 3) that just cam...
  • newuser:

    need english subtitles

  • Demonz:

    WTH is this

    NO season info and parts 1-13

  • meyat74:

    please add if possible new episodes 5-6

  • DuranDuran: THE MS PAT show = Does anyone have BOTH the MS PAT show (SEASON 3)-and- (SEASON 4) that just came ou...
  • big_ralphie: Just sitting down to watch and, yes there are subtitles...in ITALIAN ONLY. ENGLISH subs might be hel...
  • Geependo:

    All links are dead

Archives