Sign Up   |   Sign In  
The PrimevalsBartender: Glass of GodPoftiti pe la noiThe 11th HourYou, Me, and that Mountain RetreatAnimalsThe AcolyteDark MatterPresumed InnocentMysteries of the Terracotta WarriorsNinja TerminatorPet SemataryWWE NXTThe Big Door PrizeTryingLost SoulzThe Beast in the JungleHow Music Got FreeThe Loud HouseWWE Smackdown!AcapulcoWild Eyed and WickedPeggy Sue Got MarriedFrom Russia with LoveThe Daily Show

Announcements

05/23

2024

1

Comments

FBI Most Wanted S05E13 Powderfinger 1080p AMZN WEB-DL DDP5 1 H 264-NTb
[RR/NF]
Size: 2.7GB mkv H264 (HIGH) / EAC3  HD  1920x1080

FBI: Most Wanted
File Information
[img]http://lookpic.com/cdn/i2/t/0523202401002621-1.jpg[/img]
[img]http://lookpic.com/cdn/i2/t/0523202401002621-2.jpg[/img]
[img]http://lookpic.com/cdn/i2/t/0523202401002621-3.jpg[/img]

General
Unique ID                                : 312549991331648008789539805650653281768 (0xEB22F0516B5417017AE1EA423323FDE8)
Complete name                            : FBI Most Wanted S05E13 Powderfinger 1080p AMZN WEB-DL DDP5 1 H 264-NTb.mkv
Format                                   : Matroska
Format version                           : Version 4
File size                                : 2.67 GiB
Duration                                 : 42 min 39 s
Overall bit rate                         : 8 944 kb/s
Frame rate                               : 23.976 FPS
Writing application                      : mkvmerge v84.0 ('Sleeper') 64-bit
Writing library                          : libebml v1.4.5 + libmatroska v1.7.1

Video
ID                                       : 1
Format                                   : AVC
Format/Info                              : Advanced Video Codec
Format profile                           : High@L4
Format settings                          : CABAC / 4 Ref Frames
Format settings, CABAC                   : Yes
Format settings, Reference frames        : 4 frames
Codec ID                                 : V_MPEG4/ISO/AVC
Duration                                 : 42 min 39 s
Bit rate mode                            : Constant
Bit rate                                 : 8 302 kb/s
Nominal bit rate                         : 10 000 kb/s
Width                                    : 1 920 pixels
Height                                   : 1 080 pixels
Display aspect ratio                     : 16:9
Frame rate mode                          : Constant
Frame rate                               : 23.976 (24000/1001) FPS
Color space                              : YUV
Chroma subsampling                       : 4:2:0
Bit depth                                : 8 bits
Scan type                                : Progressive
Bits/(Pixel*Frame)                       : 0.167
Stream size                              : 2.47 GiB (93%)
Default                                  : Yes
Forced                                   : No
Color range                              : Limited
Color primaries                          : BT.709
Transfer characteristics                 : BT.709
Matrix coefficients                      : BT.709

Audio
ID                                       : 2
Format                                   : E-AC-3
Format/Info                              : Enhanced AC-3
Commercial name                          : Dolby Digital Plus
Codec ID                                 : A_EAC3
Duration                                 : 42 min 39 s
Bit rate mode                            : Constant
Bit rate                                 : 640 kb/s
Channel(s)                               : 6 channels
Channel layout                           : L R C LFE Ls Rs
Sampling rate                            : 48.0 kHz
Frame rate                               : 31.250 FPS (1536 SPF)
Compression mode                         : Lossy
Stream size                              : 195 MiB (7%)
Language                                 : English (US)
Service kind                             : Complete Main
Default                                  : Yes
Forced                                   : No

Text #1
ID                                       : 3
Format                                   : UTF-8
Codec ID                                 : S_TEXT/UTF8
Codec ID/Info                            : UTF-8 Plain Text
Duration                                 : 41 min 37 s
Bit rate                                 : 89 b/s
Frame rate                               : 0.348 FPS
Count of elements                        : 870
Stream size                              : 27.2 KiB (0%)
Language                                 : English (US)
Default                                  : No
Forced                                   : No

Text #2
ID                                       : 4
Format                                   : UTF-8
Codec ID                                 : S_TEXT/UTF8
Codec ID/Info                            : UTF-8 Plain Text
Duration                                 : 42 min 33 s
Bit rate                                 : 91 b/s
Frame rate                               : 0.371 FPS
Count of elements                        : 947
Stream size                              : 28.4 KiB (0%)
Title                                    : SDH
Language                                 : English (US)
Default                                  : No
Forced                                   : No



Download
File Container: MKV
Video/Audio Codec: H264 (HIGH) EAC3
Video Resolution: 1920x1080

1 Response to "[RR/NF] FBI Most Wanted S05E13 Powderfinger 1080p AMZN WEB-DL DDP5 1 H 264-NTb (2.7GB)"
05/23/24
01:35:27
ReadyPlayerOne

Thank you!

Please Login to post a comment.
If you don't have any account, please Register.
  • Subscribe my Feeds
  • Facebook
Encoding Queue:  x264  x265

Latest Episodes

Popular Movies and TV Shows

  • The Primevals
  • Bartender: Glass of God
  • Poftiti pe la noi
  • The 11th Hour
  • You, Me, and that Mountain Retreat
  • Animals
  • The Acolyte
  • Dark Matter
  • Presumed Innocent
  • Mysteries of the Terracotta Warriors
  • Ninja Terminator
  • Pet Sematary
  • WWE NXT
  • The Big Door Prize
  • Trying
  • Lost Soulz
  • The Beast in the Jungle
  • How Music Got Free
  • The Loud House
  • WWE Smackdown!
  • Acapulco
  • Wild Eyed and Wicked
  • Peggy Sue Got Married
  • From Russia with Love
  • The Daily Show

Recent Comments

  • KissclTum: [url=https://kisstom.ru/prices]имплант с коронкой цена кисс [/url] Tegs: и...
  • Diggety247:

    BrokenHanded, Try using a DL manager.

  • BrokenHanded: clicknupload does not seem to work for past few days. keep getting an error saying the site is sendi...
  • Bud: Helps if you actually add these to the "Late Night with Seth Meyers" page too...
  • rambaldi70:

    Hy! Right now, my download speed : 1 Mb/s
    this is ok?
    Tx answer

  • Cinque_Persson: At 183 MB this had to be something completely different. In fact it's just the main actors commentin...
  • meyat74:

    my bad, should be full season

  • Oscar2:

    Halo "is" a good show

  • MeH:

    "one of the most impressive scenes"

  • rappet:

    Unfortunately, episode 2 not playing and episode 3 half missing (only 37 minutes long).

  • Anovani:

    Nice 1

  • shark:

    Will there be a sequel?

  • sjors:

    This release in in Russian with Russian subs. No English.

  • RapidRabbit98: I'll ask again Forged in Fire Series 11 episode 1 - anyone have it?

Archives