Sign Up   |   Sign In  
EvilWWE NXTWalkerMoviePass, MovieCrashThis Is SparklehorseMaze Runner: The Death CureReginald the VampireMacGyverMysterious DisappearancesThe Fall GuyBoys on Film 21: Beautiful SecretTarotFuriosa: A Mad Max SagaDark MatterMasterChef AustraliaUnder the BridgeThe Feeling That the Time for Doing Something Has PassedAutoeroticThe Big Door PrizeWWE RawLootYour Mother's SonMahal ko ang mahal moCivil WarThe Daily Show

Announcements

04/10

2024

1

Comments

FBI S06E08 Phantom 720p AMZN WEB-DL DDP5 1 H 264-NTb
[RR/NF/CU]
Size: 1.3GB mkv H264 (HIGH) / EAC3  HD  1280x720

FBI
File Information
[img]http://lookpic.com/cdn/i2/t/0410202408202757-1.jpg[/img]
[img]http://lookpic.com/cdn/i2/t/0410202408202757-2.jpg[/img]
[img]http://lookpic.com/cdn/i2/t/0410202408202757-3.jpg[/img]

General
Unique ID                                : 189633370344824657096289798916925211472 (0x8EAA0F030B9736780E9F6493F1BEC350)
Complete name                            : FBI S06E08 Phantom 720p AMZN WEB-DL DDP5 1 H 264-NTb.mkv
Format                                   : Matroska
Format version                           : Version 4
File size                                : 1.31 GiB
Duration                                 : 40 min 22 s
Overall bit rate                         : 4 636 kb/s
Frame rate                               : 23.976 FPS
Writing application                      : mkvmerge v81.0 ('Milliontown') 64-bit
Writing library                          : libebml v1.4.4 + libmatroska v1.7.1

Video
ID                                       : 1
Format                                   : AVC
Format/Info                              : Advanced Video Codec
Format profile                           : High@L3.1
Format settings                          : CABAC / 4 Ref Frames
Format settings, CABAC                   : Yes
Format settings, Reference frames        : 4 frames
Codec ID                                 : V_MPEG4/ISO/AVC
Duration                                 : 40 min 22 s
Bit rate mode                            : Constant
Bit rate                                 : 3 993 kb/s
Nominal bit rate                         : 6 000 kb/s
Width                                    : 1 280 pixels
Height                                   : 720 pixels
Display aspect ratio                     : 16:9
Frame rate mode                          : Constant
Frame rate                               : 23.976 (24000/1001) FPS
Color space                              : YUV
Chroma subsampling                       : 4:2:0
Bit depth                                : 8 bits
Scan type                                : Progressive
Bits/(Pixel*Frame)                       : 0.181
Stream size                              : 1.13 GiB (86%)
Default                                  : Yes
Forced                                   : No
Color range                              : Limited
Color primaries                          : BT.709
Transfer characteristics                 : BT.709
Matrix coefficients                      : BT.709

Audio
ID                                       : 2
Format                                   : E-AC-3
Format/Info                              : Enhanced AC-3
Commercial name                          : Dolby Digital Plus
Codec ID                                 : A_EAC3
Duration                                 : 40 min 22 s
Bit rate mode                            : Constant
Bit rate                                 : 640 kb/s
Channel(s)                               : 6 channels
Channel layout                           : L R C LFE Ls Rs
Sampling rate                            : 48.0 kHz
Frame rate                               : 31.250 FPS (1536 SPF)
Compression mode                         : Lossy
Stream size                              : 185 MiB (14%)
Language                                 : English (US)
Service kind                             : Complete Main
Default                                  : Yes
Forced                                   : No

Text #1
ID                                       : 3
Format                                   : UTF-8
Codec ID                                 : S_TEXT/UTF8
Codec ID/Info                            : UTF-8 Plain Text
Duration                                 : 39 min 12 s
Bit rate                                 : 65 b/s
Frame rate                               : 0.282 FPS
Count of elements                        : 663
Stream size                              : 18.8 KiB (0%)
Language                                 : English (US)
Default                                  : No
Forced                                   : No

Text #2
ID                                       : 4
Format                                   : UTF-8
Codec ID                                 : S_TEXT/UTF8
Codec ID/Info                            : UTF-8 Plain Text
Duration                                 : 40 min 9 s
Bit rate                                 : 68 b/s
Frame rate                               : 0.317 FPS
Count of elements                        : 763
Stream size                              : 20.2 KiB (0%)
Title                                    : SDH
Language                                 : English (US)
Default                                  : No
Forced                                   : No



Download
File Container: MKV
Video/Audio Codec: H264 (HIGH) EAC3
Video Resolution: 1280x720

1 Response to "[RR/NF/CU] FBI S06E08 Phantom 720p AMZN WEB-DL DDP5 1 H 264-NTb (1.3GB)"
04/10/24
14:54:30
ReadyPlayerOne

Thank You

Please Login to post a comment.
If you don't have any account, please Register.
  • Subscribe my Feeds
  • Facebook
Encoding Queue:  x264  x265

Latest Episodes

Popular Movies and TV Shows

  • Evil
  • WWE NXT
  • Walker
  • MoviePass, MovieCrash
  • This Is Sparklehorse
  • Maze Runner: The Death Cure
  • Reginald the Vampire
  • MacGyver
  • Mysterious Disappearances
  • The Fall Guy
  • Boys on Film 21: Beautiful Secret
  • Tarot
  • Furiosa: A Mad Max Saga
  • Dark Matter
  • MasterChef Australia
  • Under the Bridge
  • The Feeling That the Time for Doing Something Has Passed
  • Autoerotic
  • The Big Door Prize
  • WWE Raw
  • Loot
  • Your Mother's Son
  • Mahal ko ang mahal mo
  • Civil War
  • The Daily Show

Recent Comments

  • dma: @admin It appears that ClickNupload is no longer usable for free users. Don't know about paying use...
  • Bionicone: Yea this is not the Bluray version. This is another Cam. This thing should be taken down. Do not dow...
  • spiderspinner: Bud:The same thing started happening to me last night and I've used four different browsers yet they...
  • timt:

    Junk, CAM

  • upx:

    WARNING:This is NOT a BluRay rip. It's a CAMrip.

  • Bud: Is clicknupload borked for anyone else now, or is it just me? In recent months it's only worked in...
  • mentalityx:

    Rad bloke!

  • waanaabe: I hope someone follows through with the rest! also, did not check every post but hoping future ones ...
  • Demonz:

    Holy popups ClickNupload

  • rambaldi70:

    this release sort cut! 1h33m12 !
    imdb - 1h 54m

  • rambaldi70: This release the first bad source 1h33m12 - stop the play this release sort cut! 1h33m12 ! imdb - 1h...
  • rambaldi70:

    this release sort cut! 1h33m12 !
    imdb - 1h 54m

  • dilliboy: Will we ever see these RMTeam releases ever again? I hope they're not lost to the digital graveyard ...
  • kang:

    NitroFlare's link is missing...

  • kang:

    NitroFlare's link is missing...

  • tchamast:

    @Wrapt

    I've seen that too, don't know why.

  • Rafi85: Hi thx for the 14th season. Is it possible to reupload some episodes plz they were removed. These ar...
  • KubrickFan:

    Any possibility of a fresh link for this?

  • GubeShitemon: This is a different movie to the artwork version. Not the Dylan McDermott film but the Ben Affleck f...
  • drorsabi1:

    @admin
    Please add "My Adventures With Superman Season 2 "

Archives