Sign Up   |   Sign In  

Announcements

Want to support us?
Buy a RapidRAR account from our resellers:
Buy or renew a NitroFlare account via THIS LINK

06/19

2017

1

Comments

Fear The Walking Dead S03E04 720p WEB-DL DD5 1 H264-RARBG
[RR/NF/UL/UR]
Size: 1.3GB mkv H264 (HIGH) / AC3  HD  1280x718

Fear the Walking Dead
Click on the image to see full size
[RR/NF/UL/UR] Fear The Walking Dead S03E04 720p WEB-DL DD5 1 H264-RARBG (1.3GB) - Snapshot 1
File Information
[URL=http://imagecurl.com/viewer.php?file=74632889290001602232.png][IMG]http://imagecurl.com/images/74632889290001602232_thumb.png[/IMG][/URL]
[URL=http://imagecurl.com/viewer.php?file=77984856433168142698.png][IMG]http://imagecurl.com/images/77984856433168142698_thumb.png[/IMG][/URL]
[URL=http://imagecurl.com/viewer.php?file=94129163226409494931.png][IMG]http://imagecurl.com/images/94129163226409494931_thumb.png[/IMG][/URL]
[URL=http://imagecurl.com/viewer.php?file=49333615315636799940.png][IMG]http://imagecurl.com/images/49333615315636799940_thumb.png[/IMG][/URL]
[URL=http://imagecurl.com/viewer.php?file=70599111686305935031.png][IMG]http://imagecurl.com/images/70599111686305935031_thumb.png[/IMG][/URL]
[URL=http://imagecurl.com/viewer.php?file=35804512250862227082.png][IMG]http://imagecurl.com/images/35804512250862227082_thumb.png[/IMG][/URL]



[mediainfo]
Video
ID                                       : 1
Format                                   : AVC
Format/Info                              : Advanced Video Codec
Format profile                           : High@L3.1
Format settings, CABAC                   : No
Format settings, ReFrames                : 2 frames
Codec ID                                 : V_MPEG4/ISO/AVC
Duration                                 : 43 min 3 s
Bit rate                                 : 4 003 kb/s
Width                                    : 1 280 pixels
Height                                   : 718 pixels
Display aspect ratio                     : 16:9
Frame rate mode                          : Constant
Frame rate                               : 23.976 (24000/1001) FPS
Color space                              : YUV
Chroma subsampling                       : 4:2:0
Bit depth                                : 8 bits
Scan type                                : Progressive
Bits/(Pixel*Frame)                       : 0.182
Stream size                              : 1.20 GiB (89%)
Title                                    : Fear.The.Walking.Dead.S03E04.720p.WEB-DL.DD5.1.H264-RARBG
Language                                 : English
Default                                  : Yes
Forced                                   : No
Color range                              : Limited
Color primaries                          : BT.709
Transfer characteristics                 : BT.709
Matrix coefficients                      : BT.709

Audio
ID                                       : 2
Format                                   : AC-3
Format/Info                              : Audio Coding 3
Format settings, Endianness              : Big
Codec ID                                 : A_AC3
Duration                                 : 43 min 3 s
Bit rate mode                            : Constant
Bit rate                                 : 384 kb/s
Channel(s)                               : 6 channels
Channel positions                        : Front: L C R, Side: L R, LFE
Sampling rate                            : 48.0 kHz
Frame rate                               : 31.250 FPS (1536 spf)
Bit depth                                : 16 bits
Compression mode                         : Lossy
Delay relative to video                  : -42 ms
Stream size                              : 118 MiB (9%)
Title                                    : Fear.The.Walking.Dead.S03E04.720p.WEB-DL.DD5.1.H264-RARBG
Language                                 : Spanish
Service kind                             : Complete Main
Default                                  : Yes
Forced                                   : No

Text #1
ID                                       : 3
Format                                   : UTF-8
Codec ID                                 : S_TEXT/UTF8
Codec ID/Info                            : UTF-8 Plain Text
Language                                 : English
Default                                  : Yes
Forced                                   : No

Text #2
ID                                       : 4
Format                                   : UTF-8
Codec ID                                 : S_TEXT/UTF8
Codec ID/Info                            : UTF-8 Plain Text
Title                                    : SDH
Language                                 : English
Default                                  : No
Forced                                   : No



[/mediainfo]
Download
File Container: MKV
Video/Audio Codec: H264 (HIGH) AC3
Video Resolution: 1280x718
 
 
 
 

Show us some love

1 Response to "[RR/NF/UL/UR] Fear The Walking Dead S03E04 720p WEB-DL DD5 1 H264-RARBG (1.3GB)"
06/27/17
16:00:17
Admin

RapidRAR re-uploaded with new RAR file(s) (users who couldn't download some parts need to download all parts again).

Leave a Comment

  • (never displayed)
  •  
        Members don't see captchas. Sign Up / Sign In
  • Notify me via email when someone responds.
  • Subscribe my Feeds
  • Facebook

Latest Episodes

Popular Movies and TV Shows

  • iZombie
  • Wrecked
  • Pretty Little Liars
  • Black Butterfly
  • The Lost City of Z
  • Animal Kingdom
  • Downward Dog
  • Alien: Covenant
  • Their Finest
  • Avalon
  • The Family Law
  • Preacher
  • After School Special
  • Broken
  • Stitchers
  • Transformers: The Last Knight
  • Don't Hang Up
  • Shadowhunters
  • Glastonbury 2017
  • Smurfs: The Lost Village
  • ExPatriot
  • Grey Lady
  • Casual
  • Silicon Valley
  • Fear the Walking Dead

Recent Comments

  • thaone:

    Thanks

  • thaone:

    Thanks

  • thaone:

    Thanks

  • thaone:

    Thanks

  • thaone:

    Thanks

  • dg:

    KING KONG 2005 EXTENDED please post in OPENLOAD ??

  • Adamastor: Please, re-upload the following episodes of tv show Rectify:Rectify.S04E01.A.House.Divided.720p.WEB-...
  • gavtron5000:

    All of the links are account missing errors for me.

  • DonJ: Jeez! Again? This has become more common thing in RARBG releases. not the first time in recent times...
  • some dude:

    rolf that screenshot