Sign Up   |   Sign In  

Announcements

Want to support us?
Buy a RapidRAR account from our resellers:
Buy or renew a NitroFlare account via THIS LINK

04/17

2017

1

Comments

FEUD S01E07 WEBRip x264-RARBG
[RR/NF/UL/OL/UR/CU]
Size: 427MB mp4 H264 (HIGH) (AVC1) / AAC (LC) (MP4A) 720x400

Feud
Click on the image to see full size
[RR/NF/UL/OL/UR/CU] FEUD S01E07 WEBRip x264-RARBG (427MB) - Snapshot 1[RR/NF/UL/OL/UR/CU] FEUD S01E07 WEBRip x264-RARBG (427MB) - Snapshot 2
File Information
[URL]http://www.imdb.com/title/tt1984119/[/URL]
[screenshots]
[URL=http://imagecurl.com/viewer.php?file=20268927748388976218.png][IMG]http://imagecurl.com/images/20268927748388976218_thumb.png[/IMG][/URL]
[URL=http://imagecurl.com/viewer.php?file=76988150758833951558.png][IMG]http://imagecurl.com/images/76988150758833951558_thumb.png[/IMG][/URL]
[URL=http://imagecurl.com/viewer.php?file=71135855396252561183.png][IMG]http://imagecurl.com/images/71135855396252561183_thumb.png[/IMG][/URL]
[URL=http://imagecurl.com/viewer.php?file=44576103447128181047.png][IMG]http://imagecurl.com/images/44576103447128181047_thumb.png[/IMG][/URL]

[/screenshots]


[mediainfo]
Video
ID                                       : 1
Format                                   : AVC
Format/Info                              : Advanced Video Codec
Format profile                           : [email protected]
Format settings, CABAC                   : Yes
Format settings, ReFrames                : 5 frames
Codec ID                                 : avc1
Codec ID/Info                            : Advanced Video Coding
Duration                                 : 48mn 25s
Bit rate                                 : 1 100 Kbps
Width                                    : 720 pixels
Height                                   : 400 pixels
Display aspect ratio                     : 16:9
Frame rate mode                          : Constant
Frame rate                               : 23.976 (24000/1001) fps
Color space                              : YUV
Chroma subsampling                       : 4:2:0
Bit depth                                : 8 bits
Scan type                                : Progressive
Bits/(Pixel*Frame)                       : 0.159
Stream size                              : 381 MiB (89%)
Title                                    : RARBG.COM - FEUD.S01E07.WEBRip.x264-RARBG
Writing library                          : x264 core 148 r2597M e86f3a1
 Encoding settings                        : cabac=1 / ref=5 / deblock=1:-1:-1 / analyse=0x3:0x113 / me=umh / subme=9 / psy=1 / psy_rd=1.00:0.15 / mixed_ref=1 / me_range=16 / chroma_me=1 / trellis=2 / 8x8dct=1 / cqm=0 / deadz / fast pskip=1 / chroma_qp_offset=-3 / threads=12 / lookahead_threads=1 / sliced_threads=0 / nr=0 / decimate=1 / interlaced=0 / bluray_compat=0 / c / bframes=3 / b_pyramid=2 / b_adapt=2 / b_bias=0 / direct=3 / weightb=1 / open_gop=0 / weightp=2 / keyint=250 / keyint_min=23 / scenecut=40 / intra_refresh=0 / rc_lookahead=50 / rc=abr / mbtree=1 / bitrate=1100 / ratetol=1.0 / qcomp=0.60 / qpmin=0 / qpmax=69 / qpstep=4 / ip_ratio=1.40 / aq=1:1.00
Language                                 : English
Encoded date                             : UTC 2017-04-17 15:48:05
Tagged date                              : UTC 2017-04-17 15:48:05

Audio
ID                                       : 2
Format                                   : AAC
Format/Info                              : Advanced Audio Codec
Format profile                           : LC
Codec ID                                 : 40
Duration                                 : 48mn 25s
Duration_LastFrame                       : -11ms
Bit rate mode                            : Constant
Bit rate                                 : 128 Kbps
Channel(s)                               : 2 channels
Channel positions                        : Front: L R
Sampling rate                            : 48.0 KHz
Frame rate                               : 46.875 fps (1024 spf)
Compression mode                         : Lossy
Stream size                              : 44.3 MiB (10%)
Title                                    : RARBG.COM - FEUD.S01E07.WEBRip.x264-RARBG
Language                                 : English
Default                                  : Yes
Alternate group                          : 1
Encoded date                             : UTC 2017-04-17 15:48:05
Tagged date                              : UTC 2017-04-17 15:48:05



[/mediainfo]
Download
File Container: MP4
Video/Audio Codec: H264 (HIGH) (AVC1) AAC (LC) (MP4A)
Video Resolution: 720x400
 
 
 
 
 
 

Show us some love

1 Response to "[RR/NF/UL/OL/UR/CU] FEUD S01E07 WEBRip x264-RARBG (427MB)"
05/20/17
02:10:15
Admin

RapidRAR re-uploaded with new RAR file(s) (users who couldn't download some parts need to download all parts again).

Leave a Comment

  • (never displayed)
  •  
        Members don't see captchas. Sign Up / Sign In
  • Notify me via email when someone responds.
  • Subscribe my Feeds
  • Facebook

Latest Episodes

Popular Movies and TV Shows

  • Shadowhunters
  • Smurfs: The Lost Village
  • Preacher
  • Fearless
  • Transformers: The Last Knight
  • Alien: Covenant
  • Loaded
  • Fear the Walking Dead
  • Silicon Valley
  • Revenge
  • Guardians of the Galaxy Vol. 2
  • Kong: Skull Island
  • Twin Peaks
  • Last Week Tonight with John Oliver
  • Veep
  • De mantel der Liefde
  • King Arthur: Legend of the Sword
  • From the Ashes
  • Power
  • The Loch
  • I'm Dying Up Here
  • Ghost in the Shell
  • 36 Hours
  • Anna, quel particolare piacere
  • Orphan Black

Recent Comments