Sign Up   |   Sign In  
Mayor of KingstownBilly the Kid90 Day Fiancé: Happily Ever After?R.I.P.D.RatatouilleRaya and the Last DragonLove IslandLicence to KillLook to the LightKung Fu HustleDoctor ClimaxTeen Mom: The Next ChapterThe Bold and the BeautifulThe Loud HouseWelcome to WrexhamThere's Something About MaryVice News Presents: Mass Shooting AmericaHit ManWWE NXTCatfish: The TV ShowWalkerEnter the Clones of BruceImmaculateInside Out 2The Daily Show

Announcements

05/30

2024

1

Comments

Fire Country S02E01 Somethings Coming 1080p AMZN WEB-DL DDP5 1 H 264-FLUX
[RR/NF]
Size: 3GB mkv H264 (HIGH) / EAC3  HD  1920x1080

Fire Country
File Information
[img]http://lookpic.com/cdn/i2/t/0530202407551756-1.jpg[/img]
[img]http://lookpic.com/cdn/i2/t/0530202407551756-2.jpg[/img]
[img]http://lookpic.com/cdn/i2/t/0530202407551756-3.jpg[/img]

General
Unique ID                                : 144517241392436779284935860707367540056 (0x6CB9021DD68D9F09FF8F0076B5B35558)
Complete name                            : Fire Country S02E01 Somethings Coming 1080p AMZN WEB-DL DDP5 1 H 264-FLUX.mkv
Format                                   : Matroska
Format version                           : Version 4
File size                                : 2.98 GiB
Duration                                 : 43 min 32 s
Overall bit rate                         : 9 794 kb/s
Frame rate                               : 23.976 FPS
Writing application                      : mkvmerge v82.0 ('I'm The President') 64-bit
Writing library                          : libebml v1.4.5 + libmatroska v1.7.1

Video
ID                                       : 1
Format                                   : AVC
Format/Info                              : Advanced Video Codec
Format profile                           : High@L4
Format settings                          : CABAC / 4 Ref Frames
Format settings, CABAC                   : Yes
Format settings, Reference frames        : 4 frames
Codec ID                                 : V_MPEG4/ISO/AVC
Duration                                 : 43 min 32 s
Bit rate mode                            : Constant
Bit rate                                 : 9 152 kb/s
Nominal bit rate                         : 10 000 kb/s
Width                                    : 1 920 pixels
Height                                   : 1 080 pixels
Display aspect ratio                     : 16:9
Frame rate mode                          : Constant
Frame rate                               : 23.976 (24000/1001) FPS
Color space                              : YUV
Chroma subsampling                       : 4:2:0
Bit depth                                : 8 bits
Scan type                                : Progressive
Bits/(Pixel*Frame)                       : 0.184
Stream size                              : 2.78 GiB (93%)
Language                                 : English (US)
Default                                  : Yes
Forced                                   : No
Color range                              : Limited
Color primaries                          : BT.709
Transfer characteristics                 : BT.709
Matrix coefficients                      : BT.709

Audio
ID                                       : 2
Format                                   : E-AC-3
Format/Info                              : Enhanced AC-3
Commercial name                          : Dolby Digital Plus
Codec ID                                 : A_EAC3
Duration                                 : 43 min 32 s
Bit rate mode                            : Constant
Bit rate                                 : 640 kb/s
Channel(s)                               : 6 channels
Channel layout                           : L R C LFE Ls Rs
Sampling rate                            : 48.0 kHz
Frame rate                               : 31.250 FPS (1536 SPF)
Compression mode                         : Lossy
Stream size                              : 199 MiB (7%)
Language                                 : English
Service kind                             : Complete Main
Default                                  : Yes
Forced                                   : No

Text #1
ID                                       : 3
Format                                   : UTF-8
Codec ID                                 : S_TEXT/UTF8
Codec ID/Info                            : UTF-8 Plain Text
Duration                                 : 43 min 1 s
Bit rate                                 : 76 b/s
Frame rate                               : 0.332 FPS
Count of elements                        : 858
Stream size                              : 24.2 KiB (0%)
Language                                 : English (US)
Default                                  : No
Forced                                   : No

Text #2
ID                                       : 4
Format                                   : UTF-8
Codec ID                                 : S_TEXT/UTF8
Codec ID/Info                            : UTF-8 Plain Text
Duration                                 : 43 min 1 s
Bit rate                                 : 84 b/s
Frame rate                               : 0.365 FPS
Count of elements                        : 942
Stream size                              : 26.6 KiB (0%)
Title                                    : SDH
Language                                 : English (US)
Default                                  : No
Forced                                   : No



Download
File Container: MKV
Video/Audio Codec: H264 (HIGH) EAC3
Video Resolution: 1920x1080

1 Response to "[RR/NF] Fire Country S02E01 Somethings Coming 1080p AMZN WEB-DL DDP5 1 H 264-FLUX (3GB)"
05/30/24
11:37:45
ReadyPlayerOne

Thank You

Please Login to post a comment.
If you don't have any account, please Register.
  • Subscribe my Feeds
  • Facebook
Encoding Queue:  x264  x265

Latest Episodes

Popular Movies and TV Shows

  • Mayor of Kingstown
  • Billy the Kid
  • 90 Day Fiancé: Happily Ever After?
  • R.I.P.D.
  • Ratatouille
  • Raya and the Last Dragon
  • Love Island
  • Licence to Kill
  • Look to the Light
  • Kung Fu Hustle
  • Doctor Climax
  • Teen Mom: The Next Chapter
  • The Bold and the Beautiful
  • The Loud House
  • Welcome to Wrexham
  • There's Something About Mary
  • Vice News Presents: Mass Shooting America
  • Hit Man
  • WWE NXT
  • Catfish: The TV Show
  • Walker
  • Enter the Clones of Bruce
  • Immaculate
  • Inside Out 2
  • The Daily Show

Recent Comments

Archives