Sign Up   |   Sign In  

Announcements

Want to support us?
Buy a RapidRAR account from our resellers:
Buy or renew a NitroFlare account via THIS LINK

04/21

2017

4

Comments

Get Out 2017 1080p HC WEBRip x264 AAC2 0-STUTTERSHIT
[RR/NF/UL/UR]
Size: 3.4GB mp4 H264 (HIGH) (AVC1) / AAC (LC) (MP4A)  HD  1920x800

Get Out
Click on the image to see full size
[RR/NF/UL/UR] Get Out 2017 1080p HC WEBRip x264 AAC2 0-STUTTERSHIT (3.4GB) - Snapshot 1
File Information
[URL=http://imagecurl.com/viewer.php?file=10952951301506262635.png][IMG]http://imagecurl.com/images/10952951301506262635_thumb.png[/IMG][/URL]
[URL=http://imagecurl.com/viewer.php?file=97820352327840925741.png][IMG]http://imagecurl.com/images/97820352327840925741_thumb.png[/IMG][/URL]
[URL=http://imagecurl.com/viewer.php?file=11675153870281698764.png][IMG]http://imagecurl.com/images/11675153870281698764_thumb.png[/IMG][/URL]
[URL=http://imagecurl.com/viewer.php?file=23184515628746380162.png][IMG]http://imagecurl.com/images/23184515628746380162_thumb.png[/IMG][/URL]
[URL=http://imagecurl.com/viewer.php?file=56924703686370973115.png][IMG]http://imagecurl.com/images/56924703686370973115_thumb.png[/IMG][/URL]
[URL=http://imagecurl.com/viewer.php?file=24347057866916505328.png][IMG]http://imagecurl.com/images/24347057866916505328_thumb.png[/IMG][/URL]



[mediainfo]
Video
ID                                       : 1
Format                                   : AVC
Format/Info                              : Advanced Video Codec
Format profile                           : [email protected]
Format settings, CABAC                   : Yes
Format settings, ReFrames                : 4 frames
Codec ID                                 : avc1
Codec ID/Info                            : Advanced Video Coding
Duration                                 : 1h 44mn
Bit rate                                 : 4 500 Kbps
Width                                    : 1 920 pixels
Height                                   : 800 pixels
Display aspect ratio                     : 2.40:1
Frame rate mode                          : Constant
Frame rate                               : 23.976 (24000/1001) fps
Color space                              : YUV
Chroma subsampling                       : 4:2:0
Bit depth                                : 8 bits
Scan type                                : Progressive
Bits/(Pixel*Frame)                       : 0.122
Stream size                              : 3.23 GiB (95%)
Title                                    : Get.Out.2017.1080p.HC.WEBRip.x264.AAC2.0-STUTTERSHIT
Writing library                          : x264 core 148 r2597M e86f3a1
 Encoding settings                        : cabac=1 / ref=4 / deblock=1:0:0 / analyse=0x3:0x113 / me=umh / subme=8 / psy=1 / psy_rd=1.00:0.00 / mixed_ref=1 / me_range=16 / chroma_me=1 / trellis=1 / 8x8dct=1 / cqm=0 / deadz / fast pskip=1 / chroma_qp_offset=-2 / threads=40 / lookahead_threads=6 / sliced_threads=0 / nr=0 / decimate=1 / interlaced=0 / bluray_compat=0 / c / bframes=3 / b_pyramid=2 / b_adapt=2 / b_bias=0 / direct=3 / weightb=1 / open_gop=0 / weightp=2 / keyint=250 / keyint_min=23 / scenecut=40 / intra_refresh=0 / rc_lookahead=50 / rc=abr / mbtree=1 / bitrate=4500 / ratetol=1.0 / qcomp=0.60 / qpmin=0 / qpmax=69 / qpstep=4 / ip_ratio=1.40 / aq=1:1.00

Audio
ID                                       : 2
Format                                   : AAC
Format/Info                              : Advanced Audio Codec
Format profile                           : LC
Codec ID                                 : 40
Duration                                 : 1h 44mn
Bit rate mode                            : Constant
Bit rate                                 : 224 Kbps
Channel(s)                               : 2 channels
Channel positions                        : Front: L R
Sampling rate                            : 44.1 KHz
Frame rate                               : 43.066 fps (1024 spf)
Compression mode                         : Lossy
Stream size                              : 167 MiB (5%)
Title                                    : Get.Out.2017.1080p.HC.WEBRip.x264.AAC2.0-STUTTERSHIT
Default                                  : Yes
Alternate group                          : 1



[/mediainfo]
Download
File Container: MP4
Video/Audio Codec: H264 (HIGH) (AVC1) AAC (LC) (MP4A)
Video Resolution: 1920x800
 
 
 
 

Show us some love

4 Responses to "[RR/NF/UL/UR] Get Out 2017 1080p HC WEBRip x264 AAC2 0-STUTTERSHIT (3.4GB)"
04/23/17
13:24:31
JohnnyKrabak

Quality is OK, but there are hugeass korean subtitles hardcoded

04/23/17
18:10:37
subguy

Read the filename. HC stands for hardcoded Chinese.

04/23/17
18:12:26
subguy

Korean would be korsub

04/24/17
20:38:23
TomMix

@subguy: no, "HC" just means Hard Coded. Can be any language.
Though in this case, it is Chinese.

see e.g https://en.wikipedia.org/wiki/Pirated_movie_release_types

Leave a Comment

  • (never displayed)
  •  
        Members don't see captchas. Sign Up / Sign In
  • Notify me via email when someone responds.
  • Subscribe my Feeds
  • Facebook

Latest Episodes

Popular Movies and TV Shows

  • Roman Empire: Reign of Blood
  • Gotham
  • Supergirl
  • Sea Rex 3D: Journey to a Prehistoric World
  • Homo sapiens
  • Two Hands
  • Better Call Saul
  • Quantico
  • Bates Motel
  • Fifty Shades Darker
  • Lulu
  • Koyaanisqatsi
  • Taken
  • A.P.B.
  • Dimension 404
  • After the Reality
  • Wolves at the Door
  • The Shape of Things
  • Outcast
  • Into the Badlands
  • Jane the Virgin
  • The Legend of Ben Hall
  • Logan
  • Legends of the Hidden Temple
  • Silicon Valley

Recent Comments

  • tchamast:

    Any chance for HEVCs of these? Thanks!

  • D3m0N81:

    Student (2016) - Can't locate English subtitles for this film. :-(

  • Alexander Ipfelkofer:

    waiting for last nights Monday Nights RAW

  • Buckshot:

    What is your touring schedule?

  • MahBoff:

    Thaynk yewwwwwww! :)

  • Vamps: AHHHHH, THANK YOU for the very informative explanation, that was awesome. Even included an answer t...
  • MahBoff:

    @admin: Is there going to be an RMT webrip in 720/265? Thanks!

  • MahBoff:

    TYSM for the webrip in 720/265!

  • korno:

    Reup pls

  • b007:

    Thank you for another great upload.