Sign Up   |   Sign In  

Announcements

Want to support us?
Buy a RapidRAR account from our resellers:
Buy or renew a NitroFlare account via THIS LINK

04/21

2017

No

Comments

Get Out 2017 720p HC WEBRip x264 AAC2 0-STUTTERSHIT
[RR/NF/UL]
Size: 2.7GB mp4 H264 (HIGH) (AVC1) / AAC (LC) (MP4A)  HD  1280x534

Get Out
Click on the image to see full size
[RR/NF/UL] Get Out 2017 720p HC WEBRip x264 AAC2 0-STUTTERSHIT (2.7GB) - Snapshot 1
File Information
[URL=http://imagecurl.com/viewer.php?file=32540762495693810452.png][IMG]http://imagecurl.com/images/32540762495693810452_thumb.png[/IMG][/URL]
[URL=http://imagecurl.com/viewer.php?file=50294123885020010914.png][IMG]http://imagecurl.com/images/50294123885020010914_thumb.png[/IMG][/URL]
[URL=http://imagecurl.com/viewer.php?file=30092624578973742373.png][IMG]http://imagecurl.com/images/30092624578973742373_thumb.png[/IMG][/URL]
[URL=http://imagecurl.com/viewer.php?file=08576988801595378499.png][IMG]http://imagecurl.com/images/08576988801595378499_thumb.png[/IMG][/URL]
[URL=http://imagecurl.com/viewer.php?file=08524377101474580020.png][IMG]http://imagecurl.com/images/08524377101474580020_thumb.png[/IMG][/URL]
[URL=http://imagecurl.com/viewer.php?file=50731083499042971374.png][IMG]http://imagecurl.com/images/50731083499042971374_thumb.png[/IMG][/URL]



[mediainfo]
Video
ID                                       : 1
Format                                   : AVC
Format/Info                              : Advanced Video Codec
Format profile                           : [email protected]
Format settings, CABAC                   : Yes
Format settings, ReFrames                : 4 frames
Codec ID                                 : avc1
Codec ID/Info                            : Advanced Video Coding
Duration                                 : 1h 44mn
Bit rate                                 : 3 500 Kbps
Width                                    : 1 280 pixels
Height                                   : 534 pixels
Display aspect ratio                     : 2.40:1
Original display aspect ratio            : 2.40:1
Frame rate mode                          : Constant
Frame rate                               : 23.976 (24000/1001) fps
Color space                              : YUV
Chroma subsampling                       : 4:2:0
Bit depth                                : 8 bits
Scan type                                : Progressive
Bits/(Pixel*Frame)                       : 0.214
Stream size                              : 2.51 GiB (94%)
Title                                    : Get.Out.2017.720p.HC.WEBRip.x264.AAC2.0-STUTTERSHIT
Writing library                          : x264 core 148 r2694 3b70645
 Encoding settings                        : cabac=1 / ref=4 / deblock=1:0:0 / analyse=0x3:0x113 / me=umh / subme=8 / psy=1 / psy_rd=1.00:0.00 / mixed_ref=1 / me_range=16 / chroma_me=1 / trellis=1 / 8x8dct=1 / cqm=0 / deadz / fast pskip=1 / chroma_qp_offset=-2 / threads=40 / lookahead_threads=4 / sliced_threads=0 / nr=0 / decimate=1 / interlaced=0 / bluray_compat=0 / c / bframes=3 / b_pyramid=2 / b_adapt=2 / b_bias=0 / direct=3 / weightb=1 / open_gop=0 / weightp=2 / keyint=250 / keyint_min=23 / scenecut=40 / intra_refresh=0 / rc_lookahead=50 / rc=abr / mbtree=1 / bitrate=3500 / ratetol=1.0 / qcomp=0.60 / qpmin=0 / qpmax=69 / qpstep=4 / ip_ratio=1.40 / aq=1:1.00

Audio
ID                                       : 2
Format                                   : AAC
Format/Info                              : Advanced Audio Codec
Format profile                           : LC
Codec ID                                 : 40
Duration                                 : 1h 44mn
Bit rate mode                            : Constant
Bit rate                                 : 224 Kbps
Channel(s)                               : 2 channels
Channel positions                        : Front: L R
Sampling rate                            : 44.1 KHz
Frame rate                               : 43.066 fps (1024 spf)
Compression mode                         : Lossy
Stream size                              : 167 MiB (6%)
Title                                    : Get.Out.2017.720p.HC.WEBRip.x264.AAC2.0-STUTTERSHIT
Default                                  : Yes
Alternate group                          : 1



[/mediainfo]
Download
File Container: MP4
Video/Audio Codec: H264 (HIGH) (AVC1) AAC (LC) (MP4A)
Video Resolution: 1280x534
 
 
 

Show us some love

Leave a Comment

  • (never displayed)
  •  
        Members don't see captchas. Sign Up / Sign In
  • Notify me via email when someone responds.
  • Subscribe my Feeds
  • Facebook

Latest Episodes

Popular Movies and TV Shows

  • Twin Peaks
  • Logan
  • Loaded
  • I'm Dying Up Here
  • Danger Close
  • The Prison
  • Into the Badlands
  • Silicon Valley
  • Lucifer
  • The Wizard of Lies
  • Beauty and the Beast
  • The LEGO Batman Movie
  • 12 Monkeys
  • Elementary
  • American Gods
  • Buster's Mal Heart
  • Spark: A Space Tail
  • Angélique, marquise des anges
  • The Leftovers
  • Genius
  • Twin Peaks
  • T2 Trainspotting
  • The Fate of the Furious
  • Becoming Bond
  • The Son

Recent Comments

  • David-A-H:

    Thank you

  • MahBoff: Thanks, haven't seen this in decades
  • David-A-H:

    Thank you

  • Baconlite: Hmmm... Actually I was looking for the full play of Spider-man Turn Off The Dark? Does anyone hav...
  • doff: you need an account for each of these sites at this file size. why not openload or clicknupload?
  • basiadora:

    This is series 8 (2017) - the final one. Series or season 9 is not supposed to happen.

  • thaone:

    Thanks

  • thaone:

    Thanks

  • thaone:

    Thanks

  • nik:

    Plz. reupload rapidrar link