Sign Up   |   Sign In  
Civil WarWWE Smackdown!Sister Boniface MysteriesMcDonald & DoddsAtlasSouth Park: The End of ObesitySouth ParkAbbott ElementaryFuriosa: A Mad Max Saga9-1-1Star Trek: DiscoveryElsbethWWE NXTThe Beach BoysThe Fall GuyAmerican StarGrey's AnatomyThe RookieStation 19CrewThe Blue AngelsReunionThe Daily ShowChicago FireEvil

Announcements

04/19

2024

1

Comments

Ghosts 2021 S03E08 Holes Are Bad 1080p AMZN WEB-DL DDP5 1 H 264-FLUX
[RR/NF/CU]
Size: 1.3GB mkv H264 (HIGH) / EAC3  HD  1920x1080

Ghosts
File Information
[img]http://lookpic.com/cdn/i2/t/0419202407305292-1.jpg[/img]
[img]http://lookpic.com/cdn/i2/t/0419202407305292-2.jpg[/img]
[img]http://lookpic.com/cdn/i2/t/0419202407305292-3.jpg[/img]

General
Unique ID                                : 262449511416937801398858196622058948095 (0xC571EFF26B3970D813F682EEBE5B85FF)
Complete name                            : _unpack.mkv
Format                                   : Matroska
Format version                           : Version 4
File size                                : 1.28 GiB
Duration                                 : 21 min 11 s
Overall bit rate                         : 8 619 kb/s
Frame rate                               : 23.976 FPS
Writing application                      : mkvmerge v83.0 ('Circle Of Friends') 64-bit
Writing library                          : libebml v1.4.5 + libmatroska v1.7.1

Video
ID                                       : 1
Format                                   : AVC
Format/Info                              : Advanced Video Codec
Format profile                           : High@L4
Format settings                          : CABAC / 4 Ref Frames
Format settings, CABAC                   : Yes
Format settings, Reference frames        : 4 frames
Codec ID                                 : V_MPEG4/ISO/AVC
Duration                                 : 21 min 11 s
Bit rate mode                            : Constant
Bit rate                                 : 7 977 kb/s
Nominal bit rate                         : 10 000 kb/s
Width                                    : 1 920 pixels
Height                                   : 1 080 pixels
Display aspect ratio                     : 16:9
Frame rate mode                          : Constant
Frame rate                               : 23.976 (24000/1001) FPS
Color space                              : YUV
Chroma subsampling                       : 4:2:0
Bit depth                                : 8 bits
Scan type                                : Progressive
Bits/(Pixel*Frame)                       : 0.160
Stream size                              : 1.18 GiB (93%)
Language                                 : English (US)
Default                                  : Yes
Forced                                   : No
Color range                              : Limited
Color primaries                          : BT.709
Transfer characteristics                 : BT.709
Matrix coefficients                      : BT.709

Audio
ID                                       : 2
Format                                   : E-AC-3
Format/Info                              : Enhanced AC-3
Commercial name                          : Dolby Digital Plus
Codec ID                                 : A_EAC3
Duration                                 : 21 min 11 s
Bit rate mode                            : Constant
Bit rate                                 : 640 kb/s
Channel(s)                               : 6 channels
Channel layout                           : L R C LFE Ls Rs
Sampling rate                            : 48.0 kHz
Frame rate                               : 31.250 FPS (1536 SPF)
Compression mode                         : Lossy
Stream size                              : 97.0 MiB (7%)
Language                                 : English (US)
Service kind                             : Complete Main
Default                                  : Yes
Forced                                   : No

Text #1
ID                                       : 3
Format                                   : UTF-8
Codec ID                                 : S_TEXT/UTF8
Codec ID/Info                            : UTF-8 Plain Text
Duration                                 : 20 min 42 s
Bit rate                                 : 113 b/s
Frame rate                               : 0.454 FPS
Count of elements                        : 564
Stream size                              : 17.3 KiB (0%)
Language                                 : English (US)
Default                                  : No
Forced                                   : No

Text #2
ID                                       : 4
Format                                   : UTF-8
Codec ID                                 : S_TEXT/UTF8
Codec ID/Info                            : UTF-8 Plain Text
Duration                                 : 20 min 42 s
Bit rate                                 : 120 b/s
Frame rate                               : 0.476 FPS
Count of elements                        : 592
Stream size                              : 18.3 KiB (0%)
Title                                    : SDH
Language                                 : English (US)
Default                                  : No
Forced                                   : No

Menu
00:00:00.000                             : en:Scene 1
00:20:38.000                             : en:End Credits



Download
File Container: MKV
Video/Audio Codec: H264 (HIGH) EAC3
Video Resolution: 1920x1080

1 Response to "[RR/NF/CU] Ghosts 2021 S03E08 Holes Are Bad 1080p AMZN WEB-DL DDP5 1 H 264-FLUX (1.3GB)"
04/19/24
09:41:48
ReadyPlayerOne

Thank You

Please Login to post a comment.
If you don't have any account, please Register.
  • Subscribe my Feeds
  • Facebook
Encoding Queue:  x264  x265

Latest Episodes

Popular Movies and TV Shows

  • Civil War
  • WWE Smackdown!
  • Sister Boniface Mysteries
  • McDonald & Dodds
  • Atlas
  • South Park: The End of Obesity
  • South Park
  • Abbott Elementary
  • Furiosa: A Mad Max Saga
  • 9-1-1
  • Star Trek: Discovery
  • Elsbeth
  • WWE NXT
  • The Beach Boys
  • The Fall Guy
  • American Star
  • Grey's Anatomy
  • The Rookie
  • Station 19
  • Crew
  • The Blue Angels
  • Reunion
  • The Daily Show
  • Chicago Fire
  • Evil

Recent Comments

  • spiker1961:

    The audio on this is a commentary track, not the actual film audio.

  • spiker1961:

    The audio on this is a commentary track, not the film audio.

  • DuranDuran: The MS PAT show - - Does anyone have BOTH the MS PAT show (SEASON 4) & (SEASON 3) that just cam...
  • newuser:

    need english subtitles

  • Demonz:

    WTH is this

    NO season info and parts 1-13

  • meyat74:

    please add if possible new episodes 5-6

  • DuranDuran: THE MS PAT show = Does anyone have BOTH the MS PAT show (SEASON 3)-and- (SEASON 4) that just came ou...
  • big_ralphie: Just sitting down to watch and, yes there are subtitles...in ITALIAN ONLY. ENGLISH subs might be hel...
  • Geependo:

    All links are dead

  • OldMovies:

    Has Czech subtitles but not English. Need forced English for the foreign language parts.

  • PROFessorMorrynarty: Would it be possible to upload 'Lego masters Australia' Series 6 Episode 6 Please? It's the only one...
  • mentalityx:

    Thx mate.

Archives