Sign Up   |   Sign In  
Columbia: The Final FlightNCIS: Hawai'iDune: Part TwoBlue LightsThe 100th: Billy Joel at Madison Square Garden - The Greatest Arena Run of All TimeKiller Fortune TellerThe GentlemenFamily GuyBob Hearts AbisholaHundreds of BeaversStill: A Michael J. Fox MovieMoney TalksThe SympathizerTrackerThe Great NorthModel HouseAbba: How They Won EurovisionKurt Cobain: Moments That Shook MusicWhen Calls the HeartSullivan's CrossingBeacon 23The ChannelThe Batman vs. DraculaThere's Still TomorrowFallout

Announcements

02/17

2024

1

Comments

Ghosts US S03E01 The Owl 720p AMZN WEB-DL DDP5 1 H 264-NTb
[RR/NF/CU]
Size: 554MB mkv H264 (HIGH) / EAC3  HD  1280x720

Ghosts
File Information
[img]http://lookpic.com/cdn/i2/t/0217202407552096-1.jpg[/img]
[img]http://lookpic.com/cdn/i2/t/0217202407552096-2.jpg[/img]
[img]http://lookpic.com/cdn/i2/t/0217202407552096-3.jpg[/img]

General
Unique ID                                : 86156446234874586558939977373646006199 (0x40D120C2ADF38E2E020FBD7E9D4B27B7)
Complete name                            : Ghosts.US.S03E01.The.Owl.720p.AMZN.WEB-DL.DDP5.1.H.264-NTb.mkv
Format                                   : Matroska
Format version                           : Version 4
File size                                : 554 MiB
Duration                                 : 21 min 7 s
Overall bit rate                         : 3 670 kb/s
Frame rate                               : 23.976 FPS
Writing application                      : mkvmerge v81.0 ('Milliontown') 64-bit
Writing library                          : libebml v1.4.4 + libmatroska v1.7.1

Video
ID                                       : 1
Format                                   : AVC
Format/Info                              : Advanced Video Codec
Format profile                           : High@L3.1
Format settings                          : CABAC / 4 Ref Frames
Format settings, CABAC                   : Yes
Format settings, Reference frames        : 4 frames
Codec ID                                 : V_MPEG4/ISO/AVC
Duration                                 : 21 min 7 s
Bit rate mode                            : Constant
Bit rate                                 : 3 027 kb/s
Nominal bit rate                         : 4 000 kb/s
Width                                    : 1 280 pixels
Height                                   : 720 pixels
Display aspect ratio                     : 16:9
Frame rate mode                          : Constant
Frame rate                               : 23.976 (24000/1001) FPS
Color space                              : YUV
Chroma subsampling                       : 4:2:0
Bit depth                                : 8 bits
Scan type                                : Progressive
Bits/(Pixel*Frame)                       : 0.137
Stream size                              : 457 MiB (82%)
Default                                  : Yes
Forced                                   : No
Color range                              : Limited
Color primaries                          : BT.709
Transfer characteristics                 : BT.709
Matrix coefficients                      : BT.709

Audio
ID                                       : 2
Format                                   : E-AC-3
Format/Info                              : Enhanced AC-3
Commercial name                          : Dolby Digital Plus
Codec ID                                 : A_EAC3
Duration                                 : 21 min 7 s
Bit rate mode                            : Constant
Bit rate                                 : 640 kb/s
Channel(s)                               : 6 channels
Channel layout                           : L R C LFE Ls Rs
Sampling rate                            : 48.0 kHz
Frame rate                               : 31.250 FPS (1536 SPF)
Compression mode                         : Lossy
Stream size                              : 96.7 MiB (17%)
Language                                 : English (US)
Service kind                             : Complete Main
Default                                  : Yes
Forced                                   : No

Text #1
ID                                       : 3
Format                                   : UTF-8
Codec ID                                 : S_TEXT/UTF8
Codec ID/Info                            : UTF-8 Plain Text
Duration                                 : 20 min 45 s
Bit rate                                 : 115 b/s
Frame rate                               : 0.452 FPS
Count of elements                        : 563
Stream size                              : 17.6 KiB (0%)
Language                                 : English (US)
Default                                  : No
Forced                                   : No

Text #2
ID                                       : 4
Format                                   : UTF-8
Codec ID                                 : S_TEXT/UTF8
Codec ID/Info                            : UTF-8 Plain Text
Duration                                 : 20 min 45 s
Bit rate                                 : 120 b/s
Frame rate                               : 0.462 FPS
Count of elements                        : 576
Stream size                              : 18.4 KiB (0%)
Title                                    : SDH
Language                                 : English (US)
Default                                  : No
Forced                                   : No



Download
File Container: MKV
Video/Audio Codec: H264 (HIGH) EAC3
Video Resolution: 1280x720

1 Response to "[RR/NF/CU] Ghosts US S03E01 The Owl 720p AMZN WEB-DL DDP5 1 H 264-NTb (554MB)"
02/17/24
21:09:45
ReadyPlayerOne

Thank You

Please Login to post a comment.
If you don't have any account, please Register.
  • Subscribe my Feeds
  • Facebook
Encoding Queue:  x264  x265

Latest Episodes

Popular Movies and TV Shows

  • Columbia: The Final Flight
  • NCIS: Hawai'i
  • Dune: Part Two
  • Blue Lights
  • The 100th: Billy Joel at Madison Square Garden - The Greatest Arena Run of All Time
  • Killer Fortune Teller
  • The Gentlemen
  • Family Guy
  • Bob Hearts Abishola
  • Hundreds of Beavers
  • Still: A Michael J. Fox Movie
  • Money Talks
  • The Sympathizer
  • Tracker
  • The Great North
  • Model House
  • Abba: How They Won Eurovision
  • Kurt Cobain: Moments That Shook Music
  • When Calls the Heart
  • Sullivan's Crossing
  • Beacon 23
  • The Channel
  • The Batman vs. Dracula
  • There's Still Tomorrow
  • Fallout

Recent Comments

  • Bud:

    Are you ever going to put up Thursday's episode with Liev Schreiber?

  • alp-engin:

    When will that maintenance be over? Please...

  • mentalityx:

    Rad bloke

  • DownloadHostInspector:

    so far these RMTeam uploads always have a working link. DownloadHostInspector approved!

  • DownloadHostInspector:

    ah yes, this upload has a host that works. clicknupload. DownloadHostInspector approved!

  • DownloadHostInspector: Why are all the download hosts trash? none of them let you download it
  • Qua4ratic:

    clicknupload link plz

  • ppoo:

    Please, can you add "Real Time with Bill Maher S22E11" ??

  • theahtisham:

    Kindly upload Ep. 3 and 4 as well.

Archives