Sign Up   |   Sign In  
The EqualizerTrackerThe SimpsonsThe Baby DaddyTransporter 2A Bear Named WinnieThe SympathizerBob's BurgersSullivan's CrossingAccidentDawn of the Planet of the ApesThe Tunnel to Summer, the Exit of GoodbyesBeacon 23CSI: VegasBlue BloodsChallengersExhumaPlanet of the ApesInterview with the VampireSaturday Night LiveYoung SheldonGodzilla x Kong: The New EmpireForce of Nature: The Dry 2Phil Tippett: Mad Dreams and MonstersS.W.A.T.

Announcements

04/16

2024

No

Comments

God Friended Me S02E01 Joy 1080p AMZN WEB-DL DDP5 1 H 264-NTb
[RR/NF]
Size: 3GB mkv H264 (HIGH) / EAC3  HD  1920x1080

God Friended Me
File Information
[img]http://lookpic.com/cdn/i2/t/0416202415293921-1.jpg[/img]
[img]http://lookpic.com/cdn/i2/t/0416202415293921-2.jpg[/img]
[img]http://lookpic.com/cdn/i2/t/0416202415293921-3.jpg[/img]

General
Unique ID                                : 79260648898403028283116513080288757561 (0x3BA10BB3D07B79A1EBB61F0A22584739)
Complete name                            : God Friended Me S02E01 Joy 1080p AMZN WEB-DL DDP5 1 H 264-NTb.mkv
Format                                   : Matroska
Format version                           : Version 4
File size                                : 2.97 GiB
Duration                                 : 43 min 28 s
Overall bit rate                         : 9 780 kb/s
Frame rate                               : 23.976 FPS
Encoded date                             : 2019-09-30 10:42:56 UTC
Writing application                      : mkvmerge v19.0.0 ('Brave Captain') 64-bit
Writing library                          : libebml v1.3.5 + libmatroska v1.4.8

Video
ID                                       : 1
Format                                   : AVC
Format/Info                              : Advanced Video Codec
Format profile                           : High@L4
Format settings                          : CABAC / 4 Ref Frames
Format settings, CABAC                   : Yes
Format settings, Reference frames        : 4 frames
Codec ID                                 : V_MPEG4/ISO/AVC
Duration                                 : 43 min 28 s
Bit rate mode                            : Constant
Bit rate                                 : 9 137 kb/s
Nominal bit rate                         : 10 000 kb/s
Width                                    : 1 920 pixels
Height                                   : 1 080 pixels
Display aspect ratio                     : 16:9
Frame rate mode                          : Constant
Frame rate                               : 23.976 (24000/1001) FPS
Color space                              : YUV
Chroma subsampling                       : 4:2:0
Bit depth                                : 8 bits
Scan type                                : Progressive
Bits/(Pixel*Frame)                       : 0.184
Stream size                              : 2.77 GiB (93%)
Default                                  : Yes
Forced                                   : No
Color range                              : Limited
Color primaries                          : BT.709
Transfer characteristics                 : BT.709
Matrix coefficients                      : BT.709

Audio
ID                                       : 2
Format                                   : E-AC-3
Format/Info                              : Enhanced AC-3
Commercial name                          : Dolby Digital Plus
Codec ID                                 : A_EAC3
Duration                                 : 43 min 28 s
Bit rate mode                            : Constant
Bit rate                                 : 640 kb/s
Channel(s)                               : 6 channels
Channel layout                           : L R C LFE Ls Rs
Sampling rate                            : 48.0 kHz
Frame rate                               : 31.250 FPS (1536 SPF)
Compression mode                         : Lossy
Stream size                              : 199 MiB (7%)
Language                                 : English
Service kind                             : Complete Main
Default                                  : Yes
Forced                                   : No

Text #1
ID                                       : 3
Format                                   : UTF-8
Codec ID                                 : S_TEXT/UTF8
Codec ID/Info                            : UTF-8 Plain Text
Duration                                 : 42 min 53 s
Bit rate                                 : 108 b/s
Frame rate                               : 0.437 FPS
Count of elements                        : 1125
Stream size                              : 34.2 KiB (0%)
Language                                 : English
Default                                  : No
Forced                                   : No

Text #2
ID                                       : 4
Format                                   : UTF-8
Codec ID                                 : S_TEXT/UTF8
Codec ID/Info                            : UTF-8 Plain Text
Duration                                 : 43 min 0 s
Bit rate                                 : 114 b/s
Frame rate                               : 0.493 FPS
Count of elements                        : 1273
Stream size                              : 36.1 KiB (0%)
Title                                    : SDH
Language                                 : English
Default                                  : No
Forced                                   : No



Download
File Container: MKV
Video/Audio Codec: H264 (HIGH) EAC3
Video Resolution: 1920x1080
Please Login to post a comment.
If you don't have any account, please Register.
  • Subscribe my Feeds
  • Facebook
Encoding Queue:  x264  x265

Latest Episodes

Popular Movies and TV Shows

  • The Equalizer
  • Tracker
  • The Simpsons
  • The Baby Daddy
  • Transporter 2
  • A Bear Named Winnie
  • The Sympathizer
  • Bob's Burgers
  • Sullivan's Crossing
  • Accident
  • Dawn of the Planet of the Apes
  • The Tunnel to Summer, the Exit of Goodbyes
  • Beacon 23
  • CSI: Vegas
  • Blue Bloods
  • Challengers
  • Exhuma
  • Planet of the Apes
  • Interview with the Vampire
  • Saturday Night Live
  • Young Sheldon
  • Godzilla x Kong: The New Empire
  • Force of Nature: The Dry 2
  • Phil Tippett: Mad Dreams and Monsters
  • S.W.A.T.

Recent Comments

  • 23d1:

    not episode 4 it is episode 3

  • 23d1:

    not episode 4 it is episode 3

  • 23d1:

    not episode 4 it is episode 3

  • 23d1:

    not episode 4 it is episode 3

  • aaroz88:

    Trimas!!

  • mptoo: I don't often ask this, infact this would be the first time, but I don't suppose there is any chance...
  • Cinque_Persson:

    btw:
    quote /quote
    is broken

  • gabrielsyme:

    Sorry but where is the clicknupload link?

  • mike1204:

    Is this episode doomed??? The RMX avi version is only 12 minutes long!!!

  • waanaabe:

    Could PUSHING DAISES kindly be upoaded to CU? THANKS!

  • mentalityx:

    Thx bloke.

Archives