Sign Up   |   Sign In  
The ChiSistasThe Big CigarI Saw the TV GlowThe EgyptianNotas sobre un veranoThe Bold and the BeautifulYoung SheldonModern FamilyGoodbye Uncle TomLSD 2: Love, Sex Aur Dhokha 2The PrestigeThe BoysWWE NXTWalkerMower MinionsBratsAssimilateEvilBridgertonCriminal MindsIn the Line of FireThe Artifice GirlLamp LifeThe Daily Show

Announcements

05/17

2024

1

Comments

Greys Anatomy S20E08 Blood Sweat and Tears 720p AMZN WEB-DL DDP5 1 H 264-FLUX
[RR/NF]
Size: 1.5GB mkv H264 (HIGH) / EAC3  HD  1280x720

Grey's Anatomy
File Information
[img]http://lookpic.com/cdn/i2/t/0517202406552151-1.jpg[/img]
[img]http://lookpic.com/cdn/i2/t/0517202406552151-2.jpg[/img]
[img]http://lookpic.com/cdn/i2/t/0517202406552151-3.jpg[/img]

General
Unique ID                                : 314551493445485622790136988796465116724 (0xECA469FDBA7A7796C3B21413ABDAF634)
Complete name                            : Greys Anatomy S20E08 Blood Sweat and Tears 720p AMZN WEB-DL DDP5 1 H 264-FLUX.mkv
Format                                   : Matroska
Format version                           : Version 4
File size                                : 1.48 GiB
Duration                                 : 43 min 2 s
Overall bit rate                         : 4 933 kb/s
Frame rate                               : 23.976 FPS
Writing application                      : mkvmerge v83.0 ('Circle Of Friends') 64-bit
Writing library                          : libebml v1.4.5 + libmatroska v1.7.1

Video
ID                                       : 1
Format                                   : AVC
Format/Info                              : Advanced Video Codec
Format profile                           : High@L3.1
Format settings                          : CABAC / 4 Ref Frames
Format settings, CABAC                   : Yes
Format settings, Reference frames        : 4 frames
Codec ID                                 : V_MPEG4/ISO/AVC
Duration                                 : 43 min 2 s
Bit rate mode                            : Constant
Bit rate                                 : 4 290 kb/s
Nominal bit rate                         : 6 000 kb/s
Width                                    : 1 280 pixels
Height                                   : 720 pixels
Display aspect ratio                     : 16:9
Frame rate mode                          : Constant
Frame rate                               : 23.976 (24000/1001) FPS
Color space                              : YUV
Chroma subsampling                       : 4:2:0
Bit depth                                : 8 bits
Scan type                                : Progressive
Bits/(Pixel*Frame)                       : 0.194
Stream size                              : 1.29 GiB (87%)
Language                                 : English (US)
Default                                  : Yes
Forced                                   : No
Color range                              : Limited
Color primaries                          : BT.709
Transfer characteristics                 : BT.709
Matrix coefficients                      : BT.709

Audio
ID                                       : 2
Format                                   : E-AC-3
Format/Info                              : Enhanced AC-3
Commercial name                          : Dolby Digital Plus
Codec ID                                 : A_EAC3
Duration                                 : 43 min 2 s
Bit rate mode                            : Constant
Bit rate                                 : 640 kb/s
Channel(s)                               : 6 channels
Channel layout                           : L R C LFE Ls Rs
Sampling rate                            : 48.0 kHz
Frame rate                               : 31.250 FPS (1536 SPF)
Compression mode                         : Lossy
Stream size                              : 197 MiB (13%)
Language                                 : English
Service kind                             : Complete Main
Default                                  : Yes
Forced                                   : No

Text #1
ID                                       : 3
Format                                   : UTF-8
Codec ID                                 : S_TEXT/UTF8
Codec ID/Info                            : UTF-8 Plain Text
Duration                                 : 42 min 11 s
Bit rate                                 : 107 b/s
Frame rate                               : 0.349 FPS
Count of elements                        : 884
Stream size                              : 33.1 KiB (0%)
Language                                 : English (US)
Default                                  : No
Forced                                   : No

Text #2
ID                                       : 4
Format                                   : UTF-8
Codec ID                                 : S_TEXT/UTF8
Codec ID/Info                            : UTF-8 Plain Text
Duration                                 : 42 min 11 s
Bit rate                                 : 113 b/s
Frame rate                               : 0.362 FPS
Count of elements                        : 915
Stream size                              : 35.0 KiB (0%)
Title                                    : SDH
Language                                 : English (US)
Default                                  : No
Forced                                   : No

Menu
00:00:00.000                             : en:Scene 1
00:42:15.000                             : en:End Credits



Download
File Container: MKV
Video/Audio Codec: H264 (HIGH) EAC3
Video Resolution: 1280x720

1 Response to "[RR/NF] Greys Anatomy S20E08 Blood Sweat and Tears 720p AMZN WEB-DL DDP5 1 H 264-FLUX (1.5GB)"
05/17/24
08:20:39
ReadyPlayerOne

Thank You

Please Login to post a comment.
If you don't have any account, please Register.
  • Subscribe my Feeds
  • Facebook
Encoding Queue:  x264  x265

Latest Episodes

Popular Movies and TV Shows

  • The Chi
  • Sistas
  • The Big Cigar
  • I Saw the TV Glow
  • The Egyptian
  • Notas sobre un verano
  • The Bold and the Beautiful
  • Young Sheldon
  • Modern Family
  • Goodbye Uncle Tom
  • LSD 2: Love, Sex Aur Dhokha 2
  • The Prestige
  • The Boys
  • WWE NXT
  • Walker
  • Mower Minions
  • Brats
  • Assimilate
  • Evil
  • Bridgerton
  • Criminal Minds
  • In the Line of Fire
  • The Artifice Girl
  • Lamp Life
  • The Daily Show

Recent Comments

Archives