Sign Up   |   Sign In  
ShogunA Story About a Grandpa and Grandma Who Returned Back to Their YouthThe Taste of ThingsLegend of the Lost LocketThe Ghost and Molly McGeeWestern UnionBeacon 23ParishSaturday Night LiveFantastic Four: Rise of the Silver SurferTenetSin City: A Dame to Kill ForImmoral WomenScrambledWillowS.W.A.T.Blue BloodsYoung SheldonFalloutGrey's AnatomyRiddle of FireStar Trek: DiscoveryPacific Rim: UprisingWhiplashSugar

Announcements

02/27

2024

1

Comments

Grimsburg S01E03 McSnuff the Mystery Mutt 1080p HULU WEB-DL DDP5 1 H 264-NTb
[RR/NF/CU]
Size: 398MB mkv H264 (HIGH) / EAC3  HD  1920x1080

Grimsburg
File Information
[img]http://lookpic.com/cdn/i2/t/0226202415392606-1.jpg[/img]
[img]http://lookpic.com/cdn/i2/t/0226202415392606-2.jpg[/img]
[img]http://lookpic.com/cdn/i2/t/0226202415392606-3.jpg[/img]

General
Unique ID                                : 304652787467011930860972807887362575406 (0xE531FE1B3076480EDE040CE38921CC2E)
Complete name                            : Grimsburg.S01E03.McSnuff.the.Mystery.Mutt.1080p.HULU.WEB-DL.DDP5.1.H.264-NTb.mkv
Format                                   : Matroska
Format version                           : Version 4
File size                                : 398 MiB
Duration                                 : 21 min 39 s
Overall bit rate                         : 2 571 kb/s
Frame rate                               : 23.976 FPS
Writing application                      : mkvmerge v80.0 ('Roundabout') 64-bit
Writing library                          : libebml v1.4.4 + libmatroska v1.7.1

Video
ID                                       : 1
Format                                   : AVC
Format/Info                              : Advanced Video Codec
Format profile                           : High@L4
Format settings                          : CABAC / 4 Ref Frames
Format settings, CABAC                   : Yes
Format settings, Reference frames        : 4 frames
Codec ID                                 : V_MPEG4/ISO/AVC
Duration                                 : 21 min 39 s
Bit rate                                 : 2 313 kb/s
Width                                    : 1 920 pixels
Height                                   : 1 080 pixels
Display aspect ratio                     : 16:9
Frame rate mode                          : Constant
Frame rate                               : 23.976 (24000/1001) FPS
Color space                              : YUV
Chroma subsampling                       : 4:2:0
Bit depth                                : 8 bits
Scan type                                : Progressive
Bits/(Pixel*Frame)                       : 0.047
Stream size                              : 358 MiB (90%)
Default                                  : Yes
Forced                                   : No

Audio
ID                                       : 2
Format                                   : E-AC-3
Format/Info                              : Enhanced AC-3
Commercial name                          : Dolby Digital Plus
Codec ID                                 : A_EAC3
Duration                                 : 21 min 39 s
Bit rate mode                            : Constant
Bit rate                                 : 256 kb/s
Channel(s)                               : 6 channels
Channel layout                           : L R C LFE Ls Rs
Sampling rate                            : 48.0 kHz
Frame rate                               : 31.250 FPS (1536 SPF)
Compression mode                         : Lossy
Stream size                              : 39.7 MiB (10%)
Language                                 : English
Service kind                             : Complete Main
Default                                  : Yes
Forced                                   : No

Text #1
ID                                       : 3
Format                                   : UTF-8
Codec ID                                 : S_TEXT/UTF8
Codec ID/Info                            : UTF-8 Plain Text
Duration                                 : 21 min 33 s
Bit rate                                 : 94 b/s
Frame rate                               : 0.363 FPS
Count of elements                        : 469
Stream size                              : 15.0 KiB (0%)
Language                                 : English
Default                                  : No
Forced                                   : No

Text #2
ID                                       : 4
Format                                   : UTF-8
Codec ID                                 : S_TEXT/UTF8
Codec ID/Info                            : UTF-8 Plain Text
Duration                                 : 21 min 33 s
Bit rate                                 : 101 b/s
Frame rate                               : 0.401 FPS
Count of elements                        : 519
Stream size                              : 16.0 KiB (0%)
Title                                    : SDH
Language                                 : English
Default                                  : No
Forced                                   : No

Menu
00:00:00.000                             : en:Chapter 1
00:06:47.013                             : en:Chapter 2
00:13:02.018                             : en:Chapter 3
00:20:47.019                             : en:Chapter 4



Download
File Container: MKV
Video/Audio Codec: H264 (HIGH) EAC3
Video Resolution: 1920x1080

1 Response to "[RR/NF/CU] Grimsburg S01E03 McSnuff the Mystery Mutt 1080p HULU WEB-DL DDP5 1 H 264-NTb (398MB)"
02/27/24
03:06:15
ReadyPlayerOne

Thank you!

Please Login to post a comment.
If you don't have any account, please Register.
  • Subscribe my Feeds
  • Facebook
Encoding Queue:  x264  x265

Latest Episodes

Popular Movies and TV Shows

  • Shogun
  • A Story About a Grandpa and Grandma Who Returned Back to Their Youth
  • The Taste of Things
  • Legend of the Lost Locket
  • The Ghost and Molly McGee
  • Western Union
  • Beacon 23
  • Parish
  • Saturday Night Live
  • Fantastic Four: Rise of the Silver Surfer
  • Tenet
  • Sin City: A Dame to Kill For
  • Immoral Women
  • Scrambled
  • Willow
  • S.W.A.T.
  • Blue Bloods
  • Young Sheldon
  • Fallout
  • Grey's Anatomy
  • Riddle of Fire
  • Star Trek: Discovery
  • Pacific Rim: Uprising
  • Whiplash
  • Sugar

Recent Comments

  • mentalityx:

    Rad bloke

  • DownloadHostInspector:

    so far these RMTeam uploads always have a working link. DownloadHostInspector approved!

  • DownloadHostInspector:

    ah yes, this upload has a host that works. clicknupload. DownloadHostInspector approved!

  • DownloadHostInspector: Why are all the download hosts trash? none of them let you download it
  • Qua4ratic:

    clicknupload link plz

  • ppoo:

    Please, can you add "Real Time with Bill Maher S22E11" ??

  • theahtisham:

    Kindly upload Ep. 3 and 4 as well.

  • Kudzu: Update on sound issue, File's codec info says stereo but is only a the left channel If I switch i...
  • Admin:

    kang
    Getting error while encoding, sorry

Archives