Sign Up   |   Sign In  
Blue BloodsS.W.A.T.Real Time with Bill MaherSimonThe Late GameFirefoxFire CountrySpacemanHaloYoung SheldonMegamind vs. The Doom SyndicateOne DayMasters of the AirThe RookieLolaBMFThe SeedingDune: Part TwoGhostsElsbethHightownNorthern ComfortCamp Pleasant LakeThe ChapelResident Alien

Announcements

02/10

2024

1

Comments

Halo S02E01 Sanctuary 720p AMZN WEB-DL DDP5 1 H 264-NTb
[RR/NF/CU]
Size: 1GB mkv H264 (HIGH) / EAC3  HD  1280x576

Halo
File Information
[img]http://lookpic.com/cdn/i2/t/0209202414140332-1.jpg[/img]
[img]http://lookpic.com/cdn/i2/t/0209202414140332-2.jpg[/img]
[img]http://lookpic.com/cdn/i2/t/0209202414140332-3.jpg[/img]

General
Unique ID                                : 167914714742038773488702832021271965307 (0x7E53329DF0FA89FF59E86B390A6F6E7B)
Complete name                            : Halo.S02E01.Sanctuary.720p.AMZN.WEB-DL.DDP5.1.H.264-NTb.mkv
Format                                   : Matroska
Format version                           : Version 4
File size                                : 1.02 GiB
Duration                                 : 57 min 42 s
Overall bit rate                         : 2 540 kb/s
Frame rate                               : 23.976 FPS
Writing application                      : mkvmerge v81.0 ('Milliontown') 64-bit
Writing library                          : libebml v1.4.4 + libmatroska v1.7.1

Video
ID                                       : 1
Format                                   : AVC
Format/Info                              : Advanced Video Codec
Format profile                           : High@L3.1
Format settings                          : CABAC / 4 Ref Frames
Format settings, CABAC                   : Yes
Format settings, Reference frames        : 4 frames
Codec ID                                 : V_MPEG4/ISO/AVC
Duration                                 : 57 min 42 s
Bit rate mode                            : Constant
Bit rate                                 : 1 770 kb/s
Nominal bit rate                         : 4 000 kb/s
Width                                    : 1 280 pixels
Height                                   : 576 pixels
Display aspect ratio                     : 2.2:1
Frame rate mode                          : Constant
Frame rate                               : 23.976 (24000/1001) FPS
Color space                              : YUV
Chroma subsampling                       : 4:2:0
Bit depth                                : 8 bits
Scan type                                : Progressive
Bits/(Pixel*Frame)                       : 0.100
Stream size                              : 731 MiB (70%)
Default                                  : Yes
Forced                                   : No
Color range                              : Limited
Color primaries                          : BT.709
Transfer characteristics                 : BT.709
Matrix coefficients                      : BT.709

Audio
ID                                       : 2
Format                                   : E-AC-3 JOC
Format/Info                              : Enhanced AC-3 with Joint Object Coding
Commercial name                          : Dolby Digital Plus with Dolby Atmos
Codec ID                                 : A_EAC3
Duration                                 : 57 min 42 s
Bit rate mode                            : Constant
Bit rate                                 : 768 kb/s
Channel(s)                               : 6 channels
Channel layout                           : L R C LFE Ls Rs
Sampling rate                            : 48.0 kHz
Frame rate                               : 31.250 FPS (1536 SPF)
Compression mode                         : Lossy
Stream size                              : 317 MiB (30%)
Language                                 : English
Service kind                             : Complete Main
Default                                  : Yes
Forced                                   : No
Complexity index                         : 16
Number of dynamic objects                : 15
Bed channel count                        : 1 channel
Bed channel configuration                : LFE

Text #1
ID                                       : 3
Format                                   : UTF-8
Codec ID                                 : S_TEXT/UTF8
Codec ID/Info                            : UTF-8 Plain Text
Duration                                 : 55 min 16 s
Bit rate                                 : 59 b/s
Frame rate                               : 0.240 FPS
Count of elements                        : 796
Stream size                              : 23.9 KiB (0%)
Language                                 : English (US)
Default                                  : No
Forced                                   : No

Text #2
ID                                       : 4
Format                                   : UTF-8
Codec ID                                 : S_TEXT/UTF8
Codec ID/Info                            : UTF-8 Plain Text
Duration                                 : 55 min 43 s
Bit rate                                 : 66 b/s
Frame rate                               : 0.275 FPS
Count of elements                        : 920
Stream size                              : 27.3 KiB (0%)
Title                                    : SDH
Language                                 : English (US)
Default                                  : No
Forced                                   : No

Menu
00:00:00.000                             : en:Chapter 1
00:16:59.521                             : en:Chapter 2
00:29:47.561                             : en:Chapter 3
00:44:38.241                             : en:Chapter 4
00:55:32.596                             : en:Chapter 5



Download
File Container: MKV
Video/Audio Codec: H264 (HIGH) EAC3
Video Resolution: 1280x576

1 Response to "[RR/NF/CU] Halo S02E01 Sanctuary 720p AMZN WEB-DL DDP5 1 H 264-NTb (1GB)"
02/10/24
03:59:23
ReadyPlayerOne

Thank you!

Please Login to post a comment.
If you don't have any account, please Register.
  • Subscribe my Feeds
  • Facebook
Encoding Queue:  x264  x265

Latest Episodes

Popular Movies and TV Shows

  • Blue Bloods
  • S.W.A.T.
  • Real Time with Bill Maher
  • Simon
  • The Late Game
  • Firefox
  • Fire Country
  • Spaceman
  • Halo
  • Young Sheldon
  • Megamind vs. The Doom Syndicate
  • One Day
  • Masters of the Air
  • The Rookie
  • Lola
  • BMF
  • The Seeding
  • Dune: Part Two
  • Ghosts
  • Elsbeth
  • Hightown
  • Northern Comfort
  • Camp Pleasant Lake
  • The Chapel
  • Resident Alien

Recent Comments

  • ruf999:

    hanyou

  • uncabrian: If you can, please upload other seasons of "Eureka" in the same format and size. Much appr...
  • pr4455:

    hi this movie has no audio just commentry

  • asalan:

    please reupload.

  • asalan:

    reupload please.

  • newuser:

    need English Sub that Sync

  • Bud:

    Can we get a re-up on the clicknupload link please? Current link is dead.

Archives