Sign Up   |   Sign In  
ParishSaturday Night LiveGood TimesNorth Korea: Inside the Mind of a DictatorSin CityBeacon 23Immoral WomenWillowA Gentleman in MoscowRiddle of Fire48 HoursBlue BloodsGrey's AnatomyS.W.A.T.Pacific Rim: UprisingScrambledThe War on ChildrenFalloutFire CountryStar Trek: DiscoveryT2 TrainspottingWhiplashDamagedSugarYoung Sheldon

Announcements

02/29

2024

1

Comments

Halo S02E05 Aleria 1080p AMZN WEB-DL DDP5 1 Atmos H 264-FLUX
[RR/NF]
Size: 3.1GB mkv H264 (HIGH) / EAC3  HD  1920x1080

Halo
File Information
[img]http://lookpic.com/cdn/i2/t/0229202410501733-1.jpg[/img]
[img]http://lookpic.com/cdn/i2/t/0229202410501733-2.jpg[/img]
[img]http://lookpic.com/cdn/i2/t/0229202410501733-3.jpg[/img]

General
Unique ID                                : 119522080030261369027478305813267045217 (0x59EB1D83F1F398843044E9333EF55B61)
Complete name                            : Halo.S02E05.Aleria.1080p.AMZN.WEB-DL.DDP5.1.Atmos.H.264-FLUX.mkv
Format                                   : Matroska
Format version                           : Version 4
File size                                : 3.11 GiB
Duration                                 : 1 h 1 min
Overall bit rate                         : 7 214 kb/s
Frame rate                               : 23.976 FPS
Writing application                      : mkvmerge v81.0 ('Milliontown') 64-bit
Writing library                          : libebml v1.4.4 + libmatroska v1.7.1

Video
ID                                       : 1
Format                                   : AVC
Format/Info                              : Advanced Video Codec
Format profile                           : High@L4
Format settings                          : CABAC / 4 Ref Frames
Format settings, CABAC                   : Yes
Format settings, Reference frames        : 4 frames
Codec ID                                 : V_MPEG4/ISO/AVC
Duration                                 : 1 h 1 min
Bit rate mode                            : Constant
Bit rate                                 : 6 448 kb/s
Nominal bit rate                         : 10 000 kb/s
Width                                    : 1 920 pixels
Height                                   : 1 080 pixels
Display aspect ratio                     : 16:9
Frame rate mode                          : Constant
Frame rate                               : 23.976 (24000/1001) FPS
Color space                              : YUV
Chroma subsampling                       : 4:2:0
Bit depth                                : 8 bits
Scan type                                : Progressive
Bits/(Pixel*Frame)                       : 0.130
Stream size                              : 2.78 GiB (89%)
Language                                 : English (US)
Default                                  : Yes
Forced                                   : No
Color range                              : Limited
Color primaries                          : BT.709
Transfer characteristics                 : BT.709
Matrix coefficients                      : BT.709

Audio
ID                                       : 2
Format                                   : E-AC-3 JOC
Format/Info                              : Enhanced AC-3 with Joint Object Coding
Commercial name                          : Dolby Digital Plus with Dolby Atmos
Codec ID                                 : A_EAC3
Duration                                 : 1 h 1 min
Bit rate mode                            : Constant
Bit rate                                 : 768 kb/s
Channel(s)                               : 6 channels
Channel layout                           : L R C LFE Ls Rs
Sampling rate                            : 48.0 kHz
Frame rate                               : 31.250 FPS (1536 SPF)
Compression mode                         : Lossy
Delay relative to video                  : 5 s 439 ms
Stream size                              : 337 MiB (11%)
Language                                 : English (US)
Service kind                             : Complete Main
Default                                  : Yes
Forced                                   : No
Complexity index                         : 16
Number of dynamic objects                : 15
Bed channel count                        : 1 channel
Bed channel configuration                : LFE

Text #1
ID                                       : 3
Format                                   : UTF-8
Codec ID                                 : S_TEXT/UTF8
Codec ID/Info                            : UTF-8 Plain Text
Duration                                 : 41 min 23 s
Bit rate                                 : 7 b/s
Frame rate                               : 0.026 FPS
Count of elements                        : 64
Stream size                              : 2.15 KiB (0%)
Title                                    : Forced
Language                                 : English (US)
Default                                  : Yes
Forced                                   : Yes

Text #2
ID                                       : 4
Format                                   : UTF-8
Codec ID                                 : S_TEXT/UTF8
Codec ID/Info                            : UTF-8 Plain Text
Duration                                 : 59 min 12 s
Bit rate                                 : 42 b/s
Frame rate                               : 0.203 FPS
Count of elements                        : 721
Stream size                              : 18.6 KiB (0%)
Language                                 : English (US)
Default                                  : No
Forced                                   : No

Text #3
ID                                       : 5
Format                                   : UTF-8
Codec ID                                 : S_TEXT/UTF8
Codec ID/Info                            : UTF-8 Plain Text
Duration                                 : 1 h 1 min
Bit rate                                 : 47 b/s
Frame rate                               : 0.225 FPS
Count of elements                        : 830
Stream size                              : 21.5 KiB (0%)
Title                                    : SDH
Language                                 : English (US)
Default                                  : No
Forced                                   : No

Menu
00:00:05.439                             : en:Chapter 01
00:00:08.439                             : en:Intro
00:01:58.439                             : en:Chapter 02
00:08:23.439                             : en:Opening Credits
00:09:23.439                             : en:Chapter 03
01:00:24.439                             : en:Credits



Download
File Container: MKV
Video/Audio Codec: H264 (HIGH) EAC3
Video Resolution: 1920x1080

1 Response to "[RR/NF] Halo S02E05 Aleria 1080p AMZN WEB-DL DDP5 1 Atmos H 264-FLUX (3.1GB)"
02/29/24
12:52:20
ReadyPlayerOne

Thank You

Please Login to post a comment.
If you don't have any account, please Register.
  • Subscribe my Feeds
  • Facebook
Encoding Queue:  x264  x265

Latest Episodes

Popular Movies and TV Shows

  • Parish
  • Saturday Night Live
  • Good Times
  • North Korea: Inside the Mind of a Dictator
  • Sin City
  • Beacon 23
  • Immoral Women
  • Willow
  • A Gentleman in Moscow
  • Riddle of Fire
  • 48 Hours
  • Blue Bloods
  • Grey's Anatomy
  • S.W.A.T.
  • Pacific Rim: Uprising
  • Scrambled
  • The War on Children
  • Fallout
  • Fire Country
  • Star Trek: Discovery
  • T2 Trainspotting
  • Whiplash
  • Damaged
  • Sugar
  • Young Sheldon

Recent Comments

  • DownloadHostInspector:

    so far these RMTeam uploads always have a working link. DownloadHostInspector approved!

  • DownloadHostInspector:

    ah yes, this upload has a host that works. clicknupload. DownloadHostInspector approved!

  • DownloadHostInspector: Why are all the download hosts trash? none of them let you download it
  • Qua4ratic:

    clicknupload link plz

  • ppoo:

    Please, can you add "Real Time with Bill Maher S22E11" ??

  • theahtisham:

    Kindly upload Ep. 3 and 4 as well.

  • Kudzu: Update on sound issue, File's codec info says stereo but is only a the left channel If I switch i...
  • Admin:

    kang
    Getting error while encoding, sorry

  • rambaldi70:

    sorry this release ok.
    but descripton is bad
    (Duration: 2h56m7s)

Archives