Sign Up   |   Sign In  
American Horror StoryAn Archdemon's Dilemma: How to Love Your Elf BrideChuckyCenturionSicario: Day of the SoldadoGunfightersStar Trek: DiscoveryThe Three Musketeers - Part II: MiladyFamily GuyAbbott ElementaryLa margeLegacy PeakWalkerGhostbusters: Frozen EmpireNot Dead YetAnimal ControlGodzilla x Kong: The New EmpireThe InseparablesStar Wars: The Bad BatchX-Men '97FBIEvil Does Not ExistThe BricklayerAll You Need Is DeathShogun

Announcements

02/16

2024

1

Comments

Hightown S03E04 Jackpot 1080p AMZN WEB-DL DDP5 1 H 264-NTb
[RR/NF]
Size: 3.7GB mkv H264 (HIGH) / EAC3  HD  1920x1080

Hightown
File Information
[img]http://lookpic.com/cdn/i2/t/0215202421220593-1.jpg[/img]
[img]http://lookpic.com/cdn/i2/t/0215202421220593-2.jpg[/img]
[img]http://lookpic.com/cdn/i2/t/0215202421220593-3.jpg[/img]

General
Unique ID                                : 294159848422145771253724978215617231996 (0xDD4D2044E5404F787DA454DB1E76FC7C)
Complete name                            : Hightown.S03E04.Jackpot.1080p.AMZN.WEB-DL.DDP5.1.H.264-NTb.mkv
Format                                   : Matroska
Format version                           : Version 4
File size                                : 3.67 GiB
Duration                                 : 51 min 49 s
Overall bit rate                         : 10.1 Mb/s
Frame rate                               : 23.976 FPS
Writing application                      : mkvmerge v81.0 ('Milliontown') 64-bit
Writing library                          : libebml v1.4.4 + libmatroska v1.7.1

Video
ID                                       : 1
Format                                   : AVC
Format/Info                              : Advanced Video Codec
Format profile                           : High@L4
Format settings                          : CABAC / 4 Ref Frames
Format settings, CABAC                   : Yes
Format settings, Reference frames        : 4 frames
Codec ID                                 : V_MPEG4/ISO/AVC
Duration                                 : 51 min 49 s
Bit rate mode                            : Constant
Bit rate                                 : 9 490 kb/s
Nominal bit rate                         : 10 000 kb/s
Width                                    : 1 920 pixels
Height                                   : 1 080 pixels
Display aspect ratio                     : 16:9
Frame rate mode                          : Constant
Frame rate                               : 23.976 (24000/1001) FPS
Color space                              : YUV
Chroma subsampling                       : 4:2:0
Bit depth                                : 8 bits
Scan type                                : Progressive
Bits/(Pixel*Frame)                       : 0.191
Stream size                              : 3.44 GiB (94%)
Default                                  : Yes
Forced                                   : No
Color range                              : Limited
Color primaries                          : BT.709
Transfer characteristics                 : BT.709
Matrix coefficients                      : BT.709

Audio
ID                                       : 2
Format                                   : E-AC-3
Format/Info                              : Enhanced AC-3
Commercial name                          : Dolby Digital Plus
Codec ID                                 : A_EAC3
Duration                                 : 51 min 49 s
Bit rate mode                            : Constant
Bit rate                                 : 640 kb/s
Channel(s)                               : 6 channels
Channel layout                           : L R C LFE Ls Rs
Sampling rate                            : 48.0 kHz
Frame rate                               : 31.250 FPS (1536 SPF)
Compression mode                         : Lossy
Stream size                              : 237 MiB (6%)
Language                                 : English (US)
Service kind                             : Complete Main
Default                                  : Yes
Forced                                   : No

Text #1
ID                                       : 3
Format                                   : UTF-8
Codec ID                                 : S_TEXT/UTF8
Codec ID/Info                            : UTF-8 Plain Text
Duration                                 : 50 min 51 s
Bit rate                                 : 74 b/s
Frame rate                               : 0.299 FPS
Count of elements                        : 911
Stream size                              : 27.8 KiB (0%)
Language                                 : English (US)
Default                                  : No
Forced                                   : No

Text #2
ID                                       : 4
Format                                   : UTF-8
Codec ID                                 : S_TEXT/UTF8
Codec ID/Info                            : UTF-8 Plain Text
Duration                                 : 50 min 51 s
Bit rate                                 : 86 b/s
Frame rate                               : 0.368 FPS
Count of elements                        : 1123
Stream size                              : 32.1 KiB (0%)
Title                                    : SDH
Language                                 : English (US)
Default                                  : No
Forced                                   : No

Text #3
ID                                       : 5
Format                                   : UTF-8
Codec ID                                 : S_TEXT/UTF8
Codec ID/Info                            : UTF-8 Plain Text
Duration                                 : 50 min 50 s
Bit rate                                 : 74 b/s
Frame rate                               : 0.282 FPS
Count of elements                        : 860
Stream size                              : 27.7 KiB (0%)
Language                                 : Spanish (Latin America)
Default                                  : No
Forced                                   : No

Text #4
ID                                       : 6
Format                                   : UTF-8
Codec ID                                 : S_TEXT/UTF8
Codec ID/Info                            : UTF-8 Plain Text
Duration                                 : 50 min 50 s
Bit rate                                 : 83 b/s
Frame rate                               : 0.349 FPS
Count of elements                        : 1066
Stream size                              : 31.3 KiB (0%)
Title                                    : SDH
Language                                 : Spanish (Latin America)
Default                                  : No
Forced                                   : No



Download
File Container: MKV
Video/Audio Codec: H264 (HIGH) EAC3
Video Resolution: 1920x1080

1 Response to "[RR/NF] Hightown S03E04 Jackpot 1080p AMZN WEB-DL DDP5 1 H 264-NTb (3.7GB)"
02/16/24
09:10:03
ReadyPlayerOne

Thank You

Please Login to post a comment.
If you don't have any account, please Register.
  • Subscribe my Feeds
  • Facebook
Encoding Queue:  x264  x265

Latest Episodes

Popular Movies and TV Shows

  • American Horror Story
  • An Archdemon's Dilemma: How to Love Your Elf Bride
  • Chucky
  • Centurion
  • Sicario: Day of the Soldado
  • Gunfighters
  • Star Trek: Discovery
  • The Three Musketeers - Part II: Milady
  • Family Guy
  • Abbott Elementary
  • La marge
  • Legacy Peak
  • Walker
  • Ghostbusters: Frozen Empire
  • Not Dead Yet
  • Animal Control
  • Godzilla x Kong: The New Empire
  • The Inseparables
  • Star Wars: The Bad Batch
  • X-Men '97
  • FBI
  • Evil Does Not Exist
  • The Bricklayer
  • All You Need Is Death
  • Shogun

Recent Comments

  • Majnon: The links are dead. Please re-upload
  • timt:

    Anyone have the movie "Shoot" (1976) to post?

  • Nightshade: Hey, it appears at least the RMTeam separate episodes and ION's packs for the first two seasons of t...
  • Bigfishguy:

    There's no free option to download this video. Can someone please upload it to clicknupload?

  • timt:

    Junk

  • timt:

    CAM Audio

  • timt:

    Hard Coded SUMS! Russian, I Think.

  • ubirattan:

    Mandem um Fikper, por favor.

  • kellym2: No answer yet for my query - why all the episodes "server under maintenance" on some episo...
  • Majnon:

    Rapidrar links are dead :(

  • Rake:

    Loads of "Server is under maintenance" with RR theese days...

  • kellym2: Why am I getting "Server is in maintenance mode" on some episodes of a series and not on o...
  • Bud:

    Are you ever going to put up Thursday's episode with Liev Schreiber?

  • alp-engin:

    When will that maintenance be over? Please...

Archives