Sign Up   |   Sign In  
The ChannelA Very Royal Crisis: Countdown to AbdicationThe Taste of ThingsThe FableResident AlienMission: Yozakura FamilyShogunSaturday Night LiveNinja KamuiLegend of the Lost LocketFantastic Four: Rise of the Silver SurferThe BeekeeperBeacon 23ParishImmoral WomenWillowS.W.A.T.ScrambledFalloutGrey's AnatomyBlue BloodsRiddle of FirePacific Rim: UprisingThe War on ChildrenSugar

Announcements

02/16

2024

1

Comments

Hightown S03E04 Jackpot 720p AMZN WEB-DL DDP5 1 H 264-NTb
[RR/NF/CU]
Size: 1.6GB mkv H264 (HIGH) / EAC3  HD  1280x720

Hightown
File Information
[img]http://lookpic.com/cdn/i2/t/0215202421184201-1.jpg[/img]
[img]http://lookpic.com/cdn/i2/t/0215202421184201-2.jpg[/img]
[img]http://lookpic.com/cdn/i2/t/0215202421184201-3.jpg[/img]

General
Unique ID                                : 12242387312543544426490227555737329140 (0x935CC4BCC8D2EEFBE271260F63CDDF4)
Complete name                            : Hightown.S03E04.Jackpot.720p.AMZN.WEB-DL.DDP5.1.H.264-NTb.mkv
Format                                   : Matroska
Format version                           : Version 4
File size                                : 1.60 GiB
Duration                                 : 51 min 49 s
Overall bit rate                         : 4 431 kb/s
Frame rate                               : 23.976 FPS
Writing application                      : mkvmerge v81.0 ('Milliontown') 64-bit
Writing library                          : libebml v1.4.4 + libmatroska v1.7.1

Video
ID                                       : 1
Format                                   : AVC
Format/Info                              : Advanced Video Codec
Format profile                           : High@L3.1
Format settings                          : CABAC / 4 Ref Frames
Format settings, CABAC                   : Yes
Format settings, Reference frames        : 4 frames
Codec ID                                 : V_MPEG4/ISO/AVC
Duration                                 : 51 min 49 s
Bit rate mode                            : Constant
Bit rate                                 : 3 788 kb/s
Nominal bit rate                         : 4 000 kb/s
Width                                    : 1 280 pixels
Height                                   : 720 pixels
Display aspect ratio                     : 16:9
Frame rate mode                          : Constant
Frame rate                               : 23.976 (24000/1001) FPS
Color space                              : YUV
Chroma subsampling                       : 4:2:0
Bit depth                                : 8 bits
Scan type                                : Progressive
Bits/(Pixel*Frame)                       : 0.171
Stream size                              : 1.37 GiB (85%)
Default                                  : Yes
Forced                                   : No
Color range                              : Limited
Color primaries                          : BT.709
Transfer characteristics                 : BT.709
Matrix coefficients                      : BT.709

Audio
ID                                       : 2
Format                                   : E-AC-3
Format/Info                              : Enhanced AC-3
Commercial name                          : Dolby Digital Plus
Codec ID                                 : A_EAC3
Duration                                 : 51 min 49 s
Bit rate mode                            : Constant
Bit rate                                 : 640 kb/s
Channel(s)                               : 6 channels
Channel layout                           : L R C LFE Ls Rs
Sampling rate                            : 48.0 kHz
Frame rate                               : 31.250 FPS (1536 SPF)
Compression mode                         : Lossy
Stream size                              : 237 MiB (14%)
Language                                 : English (US)
Service kind                             : Complete Main
Default                                  : Yes
Forced                                   : No

Text #1
ID                                       : 3
Format                                   : UTF-8
Codec ID                                 : S_TEXT/UTF8
Codec ID/Info                            : UTF-8 Plain Text
Duration                                 : 50 min 51 s
Bit rate                                 : 74 b/s
Frame rate                               : 0.299 FPS
Count of elements                        : 911
Stream size                              : 27.8 KiB (0%)
Language                                 : English (US)
Default                                  : No
Forced                                   : No

Text #2
ID                                       : 4
Format                                   : UTF-8
Codec ID                                 : S_TEXT/UTF8
Codec ID/Info                            : UTF-8 Plain Text
Duration                                 : 50 min 51 s
Bit rate                                 : 86 b/s
Frame rate                               : 0.368 FPS
Count of elements                        : 1123
Stream size                              : 32.1 KiB (0%)
Title                                    : SDH
Language                                 : English (US)
Default                                  : No
Forced                                   : No

Text #3
ID                                       : 5
Format                                   : UTF-8
Codec ID                                 : S_TEXT/UTF8
Codec ID/Info                            : UTF-8 Plain Text
Duration                                 : 50 min 50 s
Bit rate                                 : 74 b/s
Frame rate                               : 0.282 FPS
Count of elements                        : 860
Stream size                              : 27.7 KiB (0%)
Language                                 : Spanish (Latin America)
Default                                  : No
Forced                                   : No

Text #4
ID                                       : 6
Format                                   : UTF-8
Codec ID                                 : S_TEXT/UTF8
Codec ID/Info                            : UTF-8 Plain Text
Duration                                 : 50 min 50 s
Bit rate                                 : 83 b/s
Frame rate                               : 0.349 FPS
Count of elements                        : 1066
Stream size                              : 31.3 KiB (0%)
Title                                    : SDH
Language                                 : Spanish (Latin America)
Default                                  : No
Forced                                   : No



Download
File Container: MKV
Video/Audio Codec: H264 (HIGH) EAC3
Video Resolution: 1280x720

1 Response to "[RR/NF/CU] Hightown S03E04 Jackpot 720p AMZN WEB-DL DDP5 1 H 264-NTb (1.6GB)"
02/16/24
08:05:50
ReadyPlayerOne

Thank You

Please Login to post a comment.
If you don't have any account, please Register.
  • Subscribe my Feeds
  • Facebook
Encoding Queue:  x264  x265

Latest Episodes

Popular Movies and TV Shows

  • The Channel
  • A Very Royal Crisis: Countdown to Abdication
  • The Taste of Things
  • The Fable
  • Resident Alien
  • Mission: Yozakura Family
  • Shogun
  • Saturday Night Live
  • Ninja Kamui
  • Legend of the Lost Locket
  • Fantastic Four: Rise of the Silver Surfer
  • The Beekeeper
  • Beacon 23
  • Parish
  • Immoral Women
  • Willow
  • S.W.A.T.
  • Scrambled
  • Fallout
  • Grey's Anatomy
  • Blue Bloods
  • Riddle of Fire
  • Pacific Rim: Uprising
  • The War on Children
  • Sugar

Recent Comments

  • mentalityx:

    Rad bloke

  • DownloadHostInspector:

    so far these RMTeam uploads always have a working link. DownloadHostInspector approved!

  • DownloadHostInspector:

    ah yes, this upload has a host that works. clicknupload. DownloadHostInspector approved!

  • DownloadHostInspector: Why are all the download hosts trash? none of them let you download it
  • Qua4ratic:

    clicknupload link plz

  • ppoo:

    Please, can you add "Real Time with Bill Maher S22E11" ??

  • theahtisham:

    Kindly upload Ep. 3 and 4 as well.

  • Kudzu: Update on sound issue, File's codec info says stereo but is only a the left channel If I switch i...
  • Admin:

    kang
    Getting error while encoding, sorry

Archives